<?xml version="1.0" standalone="no"?>
<!DOCTYPE svg PUBLIC "-//W3C//DTD SVG 1.1//EN" "http://www.w3.org/Graphics/SVG/1.1/DTD/svg11.dtd">
<svg xmlns="http://www.w3.org/2000/svg">
<defs >
<font id="Saira" horiz-adv-x="564" ><font-face
    font-family="Saira Thin Black"
    units-per-em="1000"
    panose-1="0 0 0 0 0 0 0 0 0 0"
    ascent="1135"
    descent="-439"
    alphabetic="0" />
<glyph unicode=" " horiz-adv-x="264" />
<glyph unicode="!" horiz-adv-x="381" d="M123 252Q116 315 109 373T97 482T87 572T81 637T79 672V688H322V672Q322 663 320 637T314 572T305 483T293 374T278 252H123ZM91 0V171H310V0H91Z" />
<glyph unicode="&quot;" horiz-adv-x="553" d="M324 421L303 642V688H487V642L466 421H324ZM86 421L65 642V688H249V642L228 421H86Z" />
<glyph unicode="#" horiz-adv-x="685" d="M87 0L125 167H44V288H153L179 401H81V522H207L246 688H381L342 522H440L479 688H614L575 522H656V401H547L521 288H619V167H493L455 0H320L358 167H260L222 0H87ZM288 288H386L412 401H314L288 288Z" />
<glyph unicode="$" horiz-adv-x="539" d="M270 65Q242 65 210 67T140 73T58 82V224Q76 223 96 222T135 219T170 218T199 217Q249 217 269 218T294 225T299 242Q299 249 298 252T288 258T261 263L193 272Q123 281 91 305T51 366T42 454Q42 503 55 535T97 585T170
612T276 620Q311 620 348 617T418 610T469 603V461Q440 463 413 464T365 467T333 468Q300 468 281 468T253 465T242 459T240 448Q240 441 241 437T251 430T279 425L357 416Q404 410 435 397T481 349T497 246Q497 176 477 137T407 81T270 65ZM193 -8V696H349V-8H193Z"
/>
<glyph unicode="%" horiz-adv-x="909" d="M169 0L618 688H740L291 0H169ZM201 311Q150 311 119 317T72 343T51 400T45 504Q45 568 50 606T72 664T119 689T201 696Q252 696 283 690T331 664T353 607T359 504Q359 439 353 401T331 343T284 318T201 311ZM201 398Q215
398 223 400T234 412T238 443T239 503Q239 542 239 563T235 594T223 606T201 609Q188 609 181 607T170 595T166 564T165 503Q165 465 165 444T169 413T180 401T201 398ZM706 -8Q655 -8 624 -2T577 24T556 81T550 185Q550 249 555 287T577 345T624 370T706 377Q757
377 788 371T836 345T858 288T864 185Q864 120 858 82T836 24T789 -1T706 -8ZM706 79Q720 79 728 81T739 93T743 124T744 184Q744 223 744 244T740 275T728 287T706 290Q693 290 686 288T675 276T671 245T670 184Q670 146 670 125T674 94T685 82T706 79Z" />
<glyph unicode="&amp;" horiz-adv-x="734" d="M358 -8Q273 -8 215 1T120 28T64 70T37 123T30 184Q30 240 44 272T87 322T155 349V353Q95 367 66 403T36 515Q36 556 50 589T99 646T197 683T357 696Q397 696 444 693T538 684T621 671V527Q588 531 547 534T465 539T389
541Q345 541 319 539T280 531T262 513T258 480Q258 459 260 447T270 430T290 423T324 422H352V272H324Q303 272 289 271T267 263T256 245T252 209Q252 182 260 169T290 151T358 146Q371 146 384 146T411 147T443 150L408 102V422H725V272H625V16Q587 9 540 4T445
-5T358 -8Z" />
<glyph unicode="&apos;" horiz-adv-x="314" d="M86 421L65 642V688H249V642L228 421H86Z" />
<glyph unicode="(" horiz-adv-x="384" d="M230 -150Q191 -109 162 -76T112 -9T79 65T60 162T54 297Q54 376 60 432T78 531T111 607T161 673T230 743H363Q340 713 322 687T289 629T266 555T252 450T247 297Q247 206 252 144T266 38T289 -36T321 -93T363 -150H230Z" />
<glyph unicode=")" horiz-adv-x="384" d="M21 -150Q44 -120 62 -94T95 -36T118 38T132 143T137 297Q137 387 132 449T118 555T95 629T63 686T21 743H154Q193 705 222 673T272 607T305 531T324 433T330 297Q330 218 324 162T306 65T273 -9T223 -75T154 -150H21Z" />
<glyph unicode="*" horiz-adv-x="456" d="M178 320L191 440L91 368L41 454L152 503L41 554L91 640L191 568L178 688H278L265 569L365 640L415 554L302 503L415 454L365 368L265 440L278 320H178Z" />
<glyph unicode="+" horiz-adv-x="540" d="M197 53V181H70V324H197V453H342V324H470V181H342V53H197Z" />
<glyph unicode="," horiz-adv-x="347" d="M64 -162V-85Q98 -85 113 -79T134 -57T139 -15V0H64V171H283V38Q283 -20 276 -58T247 -120T181 -152T64 -162Z" />
<glyph unicode="-" horiz-adv-x="381" d="M45 205V363H336V205H45Z" />
<glyph unicode="." horiz-adv-x="347" d="M64 0V171H283V0H64Z" />
<glyph unicode="/" horiz-adv-x="440" d="M-12 -55L278 743H452L161 -55H-12Z" />
<glyph unicode="0" horiz-adv-x="658" d="M329 -8Q251 -8 199 -1T116 26T68 85T47 187T42 344Q42 438 47 501T68 603T115 662T199 689T329 696Q407 696 459 689T542 662T590 603T611 501T616 344Q616 250 611 187T590 85T543 26T459 -1T329 -8ZM329 159Q345 159
354 161T369 172T377 200T380 255T381 344Q381 398 381 433T378 487T370 516T355 527T329 529Q313 529 304 527T289 516T281 488T278 433T277 344Q277 290 277 255T280 201T288 172T303 161T329 159Z" />
<glyph unicode="1" horiz-adv-x="406" d="M122 0V470L5 424V594L196 688H356V0H122Z" />
<glyph unicode="2" horiz-adv-x="614" d="M43 0V104Q43 160 45 201T56 274T87 327T147 365L287 421Q310 430 320 437T332 454T335 486Q335 506 329 515T306 526T258 529Q237 529 205 527T135 522T57 514V672Q92 679 136 684T226 693T312 696Q364 696 410 689T492
662T548 603T569 497Q569 431 555 390T517 325T463 290L306 230Q292 225 283 220T270 208T266 189V170H569V0H43Z" />
<glyph unicode="3" horiz-adv-x="611" d="M278 -8Q243 -8 202 -5T119 3T45 15V171Q82 168 121 165T195 161T255 159Q289 159 306 161T328 174T334 209Q334 236 329 248T311 263T271 266H164V429H271Q299 429 311 432T326 447T329 480Q329 504 325 514T302 526T245
529Q216 529 181 527T111 523T49 516V673Q81 680 121 685T203 693T279 696Q361 696 415 685T502 650T549 593T563 515Q563 440 534 404T443 353V349Q484 339 512 322T554 273T568 184Q568 139 556 104T512 43T424 5T278 -8Z" />
<glyph unicode="4" horiz-adv-x="656" d="M333 0V125H27V274L232 688H481L264 292H344L415 416H561V292H634V125H561V0H333Z" />
<glyph unicode="5" horiz-adv-x="629" d="M295 -8Q262 -8 221 -5T139 2T62 14V170Q94 167 131 165T204 161T265 159Q294 159 311 160T337 167T349 185T352 220Q352 240 349 252T338 271T312 279T267 281Q238 281 203 280T134 276T70 271V688H535V518H267V438Q284
440 302 441T340 443T380 444Q441 444 481 430T544 388T576 321T586 232Q586 171 574 126T530 51T441 7T295 -8Z" />
<glyph unicode="6" horiz-adv-x="665" d="M345 -8Q270 -8 217 0T127 34T68 109Q60 128 54 161T45 240T42 345Q42 392 44 431T53 504T69 562Q88 611 123 640T214 683T352 696Q381 696 419 693T501 685T584 673V517Q543 521 506 523T439 527T393 529Q354 529 330
525T294 507T278 467T273 397H279Q285 404 298 415T339 435T409 444Q460 444 500 436T568 405T611 342T626 236Q626 173 614 127T571 51T486 7T345 -8ZM337 155Q358 155 372 157T393 165T404 183T407 217Q407 238 404 251T394 270T372 279T337 281Q315 281 303
278T284 268T277 249T275 221Q275 196 278 183T289 163T308 156T337 155Z" />
<glyph unicode="7" horiz-adv-x="578" d="M77 0L310 518H29V688H551V533L331 0H77Z" />
<glyph unicode="8" horiz-adv-x="678" d="M339 -8Q248 -8 190 5T99 43T53 103T40 184Q40 240 54 272T97 322T165 349V353Q105 367 76 403T46 515Q46 559 60 593T108 650T198 684T339 696Q423 696 479 685T569 650T617 593T632 515Q632 440 602 404T513 353V349Q554
340 581 323T623 273T638 184Q638 139 625 104T580 43T489 5T339 -8ZM339 150Q368 150 382 154T402 171T407 213Q407 236 405 249T395 268T374 276T339 278Q318 278 305 276T284 268T274 249T271 213Q271 185 276 172T296 154T339 150ZM339 416Q368 416 381 419T397
436T401 476Q401 504 398 517T381 533T339 537Q311 537 298 534T281 517T277 476Q277 449 280 436T297 420T339 416Z" />
<glyph unicode="9" horiz-adv-x="665" d="M313 -8Q283 -8 243 -5T160 3T81 15V171Q123 168 160 165T226 161T272 159Q311 159 335 163T371 181T387 221T392 291H386Q381 284 367 273T327 253T256 244Q205 244 165 252T97 283T54 346T39 452Q39 515 51 561T94 637T180
681T320 696Q405 696 461 686T552 648T601 565Q614 522 618 468T623 343Q623 288 620 243T608 164T586 104Q564 63 528 39T440 3T313 -8ZM328 407Q350 407 362 410T381 420T388 439T390 467Q390 492 387 505T376 525T357 532T328 533Q307 533 293 531T272 523T261
505T258 471Q258 450 261 437T271 418T293 409T328 407Z" />
<glyph unicode=":" horiz-adv-x="347" d="M64 338V510H283V338H64ZM64 0V171H283V0H64Z" />
<glyph unicode=";" horiz-adv-x="347" d="M64 -162V-85Q98 -85 113 -79T134 -57T139 -15V0H64V171H283V38Q283 -20 276 -58T247 -120T181 -152T64 -162ZM64 338V510H283V338H64Z" />
<glyph unicode="&lt;" horiz-adv-x="541" d="M471 45L71 183V322L471 461V319L251 253L471 187V45Z" />
<glyph unicode="=" horiz-adv-x="540" d="M70 289V432H470V289H70ZM70 73V216H470V73H70Z" />
<glyph unicode="&gt;" horiz-adv-x="541" d="M70 45V187L289 253L70 319V461L470 322V183L70 45Z" />
<glyph unicode="?" horiz-adv-x="524" d="M127 252V311Q127 353 135 377T159 414T201 435L222 442Q235 446 241 450T249 462T251 487Q251 507 247 516T230 527T194 529Q179 529 157 528T111 526T67 523T34 519V676Q61 682 97 686T172 693T246 696Q288 696 329
692T403 671T457 616T477 509Q477 455 467 424T439 377T399 352T354 334L339 329Q329 325 324 322T316 314T313 298T312 266V252H127ZM111 0V171H330V0H111Z" />
<glyph unicode="@" horiz-adv-x="946" d="M473 -108Q359 -108 285 -100T167 -70T102 -3T74 114T68 294Q68 402 74 474T101 590T166 657T284 688T473 696Q587 696 661 688T779 658T844 591T872 474T878 294Q878 212 871 167T847 103T804 79T738 75H510L506 126H498Q480
99 462 87T424 72T382 68Q343 68 317 82T278 127T264 202Q264 254 275 282T317 322T406 333Q416 333 434 333T471 332T505 330V344Q505 361 503 370T491 384T464 389T414 390Q405 390 397 390T377 390T344 388T287 385V503Q330 511 377 514T471 518Q549 518 593
507T657 473T683 416T689 333V147H746Q763 147 773 150T789 166T795 209T797 294Q797 384 794 443T779 539T739 593T659 619Q632 623 585 623T473 624Q408 624 361 624T287 619Q236 612 208 594T168 539T153 444T150 294Q150 192 153 129T174 32T230 -17T342 -36Q362
-37 396 -37T475 -37Q510 -37 540 -37T596 -37T645 -35T687 -33V-106Q674 -107 659 -107T622 -108T565 -108T473 -108ZM469 185Q487 185 494 190T503 207T505 236V259H471Q454 259 446 257T436 246T433 219Q433 207 434 200T444 189T469 185Z" />
<glyph unicode="A" horiz-adv-x="697" d="M-5 0L186 688H511L702 0H470L445 103H246L222 0H-5ZM284 263H406L349 500H340L284 263Z" />
<glyph unicode="B" horiz-adv-x="660" d="M51 0V688H419Q482 688 527 670T597 614T621 515Q621 465 608 433T567 382T498 353V349Q537 340 565 324T608 275T623 184Q623 138 611 104T574 46T510 12T417 0H51ZM281 161H329Q356 161 369 164T385 180T389 219Q389
246 386 258T369 275T329 279H281V161ZM281 416H329Q356 416 369 419T385 435T389 471Q389 497 386 508T369 523T329 527H281V416Z" />
<glyph unicode="C" horiz-adv-x="567" d="M342 -8Q262 -8 208 3T121 38T71 103T48 203T42 344Q42 425 48 484T70 584T120 649T208 685T342 696Q374 696 408 694T473 687T528 677V521Q488 524 463 526T422 528T397 529Q361 529 339 526T303 513T285 482T278 429T277
344Q277 293 278 260T284 206T303 175T338 162T397 159Q427 159 465 161T532 167V8Q510 4 478 0T410 -6T342 -8Z" />
<glyph unicode="D" horiz-adv-x="670" d="M51 0V688H306Q402 688 462 678T557 645T606 583T624 485T628 344Q628 262 625 204T606 106T557 43T463 10T306 0H51ZM285 167H309Q334 167 350 169T375 180T387 208T392 259T393 343Q393 395 392 428T388 480T375 508T350
519T309 521H285V167Z" />
<glyph unicode="E" horiz-adv-x="603" d="M51 0V688H555V521H284V429H508V266H284V167H555V0H51Z" />
<glyph unicode="F" horiz-adv-x="569" d="M51 0V688H535V521H284V400H498V233H284V0H51Z" />
<glyph unicode="G" horiz-adv-x="662" d="M357 -8Q279 -8 225 2T134 36T78 100T50 201T42 344Q42 427 50 487T78 587T134 651T224 685T357 696Q394 696 438 693T528 685T611 672V516Q580 520 546 522T481 527T432 529Q385 529 355 527T308 516T283 488T273 433T271
344Q271 296 272 263T279 208T295 176T323 160T367 155Q371 155 378 155T394 156T410 156V263H344V414H614V13Q577 7 532 3T441 -5T357 -8Z" />
<glyph unicode="H" horiz-adv-x="697" d="M51 0V688H285V438H412V688H646V0H412V251H285V0H51Z" />
<glyph unicode="I" horiz-adv-x="336" d="M51 0V688H285V0H51Z" />
<glyph unicode="J" horiz-adv-x="438" d="M18 0V158Q67 158 94 160T134 174T150 208T153 271V688H387V328Q387 234 382 173T359 76T302 25T194 5T18 0Z" />
<glyph unicode="K" horiz-adv-x="696" d="M51 0V688H285V431H295L444 688H693L486 365L696 0H441L295 268H285V0H51Z" />
<glyph unicode="L" horiz-adv-x="533" d="M51 0V688H285V176H515V0H51Z" />
<glyph unicode="M" horiz-adv-x="903" d="M51 0V688H371L448 365H457L533 688H852V0H629V387H618L526 0H371L279 387H268V0H51Z" />
<glyph unicode="N" horiz-adv-x="705" d="M51 0V688H290L424 422H431V688H654V0H439L280 321H274V0H51Z" />
<glyph unicode="O" horiz-adv-x="695" d="M347 -8Q256 -8 199 3T109 38T63 103T45 203T42 344Q42 425 45 484T62 585T109 650T198 685T347 696Q438 696 495 685T585 650T632 585T649 485T653 344Q653 263 650 204T632 103T586 38T496 3T347 -8ZM347 159Q368 159
381 161T402 172T413 200T417 255T418 344Q418 398 417 433T413 487T403 516T382 527T347 529Q326 529 313 527T292 516T282 488T278 433T277 344Q277 290 277 255T281 201T292 172T312 161T347 159Z" />
<glyph unicode="P" horiz-adv-x="636" d="M51 0V688H404Q473 688 514 674T578 629T607 554T615 448Q615 393 609 349T581 274T518 226T404 209H285V0H51ZM285 372H316Q338 372 350 374T369 383T378 406T380 448Q380 475 378 491T370 514T351 523T316 525H285V372Z" />
<glyph unicode="Q" horiz-adv-x="695" d="M462 -115L244 218H475L700 -106V-115H462ZM347 -8Q256 -8 199 3T109 38T63 103T45 203T42 344Q42 425 45 484T62 585T109 650T198 685T347 696Q438 696 495 685T585 650T632 585T649 485T653 344Q653 263 650 204T632
103T586 38T496 3T347 -8ZM347 159Q368 159 381 161T402 172T413 200T417 255T418 344Q418 398 417 433T413 487T403 516T382 527T347 529Q326 529 313 527T292 516T282 488T278 433T277 344Q277 290 277 255T281 201T292 172T312 161T347 159Z" />
<glyph unicode="R" horiz-adv-x="665" d="M51 0V688H413Q482 688 524 674T589 632T618 560T626 458Q626 411 621 373T598 305T547 257L641 0H401L319 272L377 239Q367 232 357 231T329 229H285V0H51ZM285 384H327Q348 384 361 385T381 393T390 414T392 454Q392
478 391 492T384 513T365 522T326 525H285V384Z" />
<glyph unicode="S" horiz-adv-x="609" d="M320 -8Q277 -8 228 -6T133 1T53 10V169Q90 166 125 164T192 160T246 159Q286 159 306 160T333 167Q338 171 340 176T342 188T343 204Q343 219 340 227T328 239T301 247T253 254L136 269Q105 273 85 289T54 333T38 399T33
485Q33 553 54 594T112 658T199 688T305 696Q347 696 391 693T475 686T541 675V518Q516 521 482 523T411 527T343 529Q319 529 304 528T281 522Q273 517 270 510T266 491Q266 474 269 465T284 453T322 445L427 432Q453 429 476 422T519 401T554 357Q561 345 565
326T573 282T576 223Q576 160 564 118T528 51T472 13T402 -4T320 -8Z" />
<glyph unicode="T" horiz-adv-x="597" d="M181 0V512H13V688H584V512H415V0H181Z" />
<glyph unicode="U" horiz-adv-x="675" d="M337 -8Q252 -8 198 2T114 36T71 96T54 188T51 316V688H285V278Q285 237 286 214T291 179T307 165T337 162Q357 162 367 165T383 179T389 213T390 278V688H624V316Q624 243 621 189T605 97T561 36T476 3T337 -8Z" />
<glyph unicode="V" horiz-adv-x="663" d="M177 0L-3 688H235L328 246H339L432 688H666L486 0H177Z" />
<glyph unicode="W" horiz-adv-x="985" d="M127 0L0 688H232L290 256H301L375 688H615L691 256H702L752 688H985L858 0H563L498 347H487L422 0H127Z" />
<glyph unicode="X" horiz-adv-x="702" d="M5 0L203 346L9 688H269L350 516H359L444 688H694L500 350L697 0H437L352 175H341L255 0H5Z" />
<glyph unicode="Y" horiz-adv-x="662" d="M214 0V222L-3 688H235L330 432H337L432 688H665L448 222V0H214Z" />
<glyph unicode="Z" horiz-adv-x="620" d="M38 0V161L298 521H49V688H582V532L318 167H581V0H38Z" />
<glyph unicode="[" horiz-adv-x="409" d="M59 -150V743H363V623L244 619V-26L363 -30V-150H59Z" />
<glyph unicode="\" horiz-adv-x="440" d="M279 -55L-12 743H162L452 -55H279Z" />
<glyph unicode="]" horiz-adv-x="409" d="M46 -150V-30L165 -26V619L46 623V743H350V-150H46Z" />
<glyph unicode="^" horiz-adv-x="421" d="M-2 444L140 749H281L423 444H278L210 621L142 444H-2Z" />
<glyph unicode="_" horiz-adv-x="406" d="M0 -193V-51H406V-193H0Z" />
<glyph unicode="`" horiz-adv-x="284" d="M136 565L0 708V713H198L284 570V565H136Z" />
<glyph unicode="a" horiz-adv-x="567" d="M166 -8Q120 -8 90 8T44 59T28 149Q28 206 41 239T90 287T193 302Q201 302 214 302T245 301T278 300T309 298V315Q309 335 306 346T292 361T261 367T203 368Q179 368 154 367T103 365T55 362V500Q93 507 147 512T269 518Q341
518 388 509T462 483T503 439T519 379T523 302V0H314L310 56H300Q279 27 258 13T214 -4T166 -8ZM267 129Q279 129 286 131T298 137T305 148Q308 155 308 165T309 188V215H269Q249 215 240 212T228 199T225 168Q225 154 227 145T238 133T267 129Z" />
<glyph unicode="b" horiz-adv-x="584" d="M400 -8Q374 -8 349 -3T302 16T266 57H255L251 0H44V743H258V459H268Q285 485 305 497T349 513T397 517Q438 517 467 505T516 464T545 383T554 253Q554 175 545 124T517 44T469 4T400 -8ZM299 157Q315 157 323 159T335
170T340 199T341 255Q341 291 340 311T336 340T324 351T299 353Q281 353 273 350T261 332Q259 319 259 301T258 255Q258 227 258 209T261 179Q264 164 272 161T299 157Z" />
<glyph unicode="c" horiz-adv-x="466" d="M264 -8Q196 -8 152 4T83 40T47 95T33 167T30 254Q30 300 32 340T46 413T82 469T151 505T264 518Q308 518 349 514T429 500V362Q411 364 381 366T324 368Q297 368 282 364T259 349T249 315T247 255Q247 218 249 196T258
162T280 146T324 142Q347 142 377 144T433 149V11Q392 2 349 -3T264 -8Z" />
<glyph unicode="d" horiz-adv-x="584" d="M184 -8Q144 -8 115 3T67 44T39 124T30 253Q30 331 39 382T67 463T116 505T187 517Q212 517 235 513T278 497T316 459H326V743H540V0H333L329 57H318Q303 30 282 16T236 -3T184 -8ZM285 157Q305 157 313 161T323 182Q325
197 325 214T326 255Q326 278 326 294T324 323Q322 344 314 348T285 353Q269 353 261 351T249 340T244 311T243 255Q243 219 244 199T248 170T260 159T285 157Z" />
<glyph unicode="e" horiz-adv-x="558" d="M303 -8Q224 -8 173 1T93 30T51 81T34 155T30 254Q30 325 36 375T65 456T140 503T281 518Q354 518 399 510T470 483T507 434T520 359T523 254V215H239Q239 188 242 173T256 152T290 144T354 142Q371 142 395 143T447 145T503
149V12Q483 6 451 2T380 -5T303 -8ZM325 284V300Q325 330 324 347T319 371T305 381T281 383Q267 383 259 381T246 372T241 347T239 300H341L325 284Z" />
<glyph unicode="f" horiz-adv-x="457" d="M102 0V360H17V510H102V523Q102 588 109 629T136 693T193 726T288 739T432 742V605Q391 605 368 604T335 597T322 580T319 547V510H432V360H319V0H102Z" />
<glyph unicode="g" horiz-adv-x="584" d="M265 -206Q232 -206 196 -204T129 -199T75 -191V-56Q97 -56 118 -56T162 -56T206 -56Q251 -56 275 -55T310 -46T323 -24T326 20V67H316Q299 42 279 30T235 13T187 9Q146 9 117 21T68 61T39 139T30 265Q30 341 39 390T67
467T115 506T184 518Q211 518 236 513T282 494T318 453H329L333 510H540V55Q540 -9 534 -57T501 -139T420 -189T265 -206ZM285 173Q305 173 313 177T323 198Q325 210 325 225T326 263Q326 284 326 299T324 325Q322 345 314 349T285 353Q269 353 261 351T249 341T244
315T243 263Q243 230 244 212T248 185T260 175T285 173Z" />
<glyph unicode="h" horiz-adv-x="588" d="M44 0V743H258V453H268Q286 480 308 494T355 513T400 518Q449 518 477 505T520 467T539 404T544 319V0H330V269Q330 300 329 317T325 341T315 350T295 352Q282 352 274 351T263 342T259 317T258 269V0H44Z" />
<glyph unicode="i" horiz-adv-x="306" d="M44 592V743H262V592H44ZM44 0V510H262V0H44Z" />
<glyph unicode="j" horiz-adv-x="306" d="M44 592V743H262V592H44ZM-28 -199V-61Q7 -61 22 -56T40 -39T44 -10V510H262V37Q262 -44 251 -91T210 -162T122 -192T-28 -199Z" />
<glyph unicode="k" horiz-adv-x="601" d="M44 0V743H258V327H267L374 510H598L445 269L601 0H367L267 177H258V0H44Z" />
<glyph unicode="l" horiz-adv-x="306" d="M44 0V743H262V0H44Z" />
<glyph unicode="m" horiz-adv-x="865" d="M44 0V510H251L255 453H265Q283 480 306 494T354 513T399 518Q456 518 487 503T531 453H541Q559 480 582 494T630 513T676 518Q739 518 770 495T811 427T821 319V0H607V269Q607 300 606 317T602 341T592 350T574 352Q561
352 554 351T543 342T540 317T539 269V0H326V269Q326 300 325 317T321 341T311 350T293 352Q280 352 273 351T262 342T259 317T258 269V0H44Z" />
<glyph unicode="n" horiz-adv-x="588" d="M44 0V510H251L255 453H265Q283 480 306 494T354 513T399 518Q448 518 477 505T520 467T539 404T544 319V0H330V269Q330 300 329 317T325 341T315 350T295 352Q282 352 274 351T263 342T259 317T258 269V0H44Z" />
<glyph unicode="o" horiz-adv-x="571" d="M285 -8Q212 -8 165 -1T90 25T50 73T34 148T30 255Q30 317 33 361T49 436T89 485T164 510T285 518Q358 518 405 511T480 485T521 437T537 362T541 255Q541 193 538 149T521 74T481 25T406 0T285 -8ZM285 142Q301 142 309
144T322 158T327 192T328 255Q328 296 327 318T322 352T310 365T285 368Q269 368 261 366T249 352T244 319T243 255Q243 215 244 192T248 158T260 145T285 142Z" />
<glyph unicode="p" horiz-adv-x="584" d="M44 -199V510H251L255 453H266Q281 480 302 494T348 513T400 518Q440 518 469 507T517 466T545 386T554 257Q554 179 545 128T517 48T468 6T397 -7Q373 -7 350 -3T306 13T268 51H258V-199H44ZM299 157Q315 157 323 159T335
170T340 199T341 255Q341 291 340 311T336 340T324 351T299 353Q281 353 273 350T261 329Q259 317 259 300T258 255Q258 227 258 209T260 183Q264 164 273 161T299 157Z" />
<glyph unicode="q" horiz-adv-x="584" d="M326 -199V51H316Q299 26 279 14T235 -3T187 -7Q146 -7 117 5T68 47T39 128T30 257Q30 335 39 386T67 466T115 506T184 518Q211 518 236 513T282 494T318 453H329L333 510H540V-199H326ZM285 157Q301 157 309 160T322
176Q325 184 325 203T326 255Q326 285 326 304T322 334Q318 347 310 350T285 353Q269 353 261 351T249 340T244 311T243 255Q243 219 244 199T248 170T260 159T285 157Z" />
<glyph unicode="r" horiz-adv-x="438" d="M44 0V510H251L255 425H265Q280 461 300 481T349 509T418 518V332Q359 332 324 320T273 274T258 171V0H44Z" />
<glyph unicode="s" horiz-adv-x="502" d="M264 -8Q229 -8 189 -6T110 -1T42 6V142Q61 141 80 140T118 137T153 136T181 135Q230 135 250 136T275 142T280 159Q280 165 278 168T266 174T231 180L112 195Q75 200 57 221T32 278T26 361Q26 415 43 446T91 493T163
513T250 518Q286 518 323 516T394 511T448 504V368Q420 370 393 371T346 374T314 375Q270 375 251 374T227 369T222 356Q222 349 224 345T235 339T265 334L366 321Q398 317 423 305T462 261T476 163Q476 102 460 68T414 17T346 -3T264 -8Z" />
<glyph unicode="t" horiz-adv-x="438" d="M101 0V360H17V510H101V658H319V510H421V360H319V0H101Z" />
<glyph unicode="u" horiz-adv-x="588" d="M189 -8Q140 -8 111 5T68 43T49 106T44 191V510H258V241Q258 210 259 193T263 169T273 160T293 158Q307 158 314 159T325 168T329 193T330 241V510H544V0H337L333 57H323Q306 30 283 16T235 -3T189 -8Z" />
<glyph unicode="v" horiz-adv-x="566" d="M136 0L5 510H219L280 180H291L349 510H561L429 0H136Z" />
<glyph unicode="w" horiz-adv-x="862" d="M115 0L10 510H217L257 194H268L335 510H530L601 194H612L648 510H852L747 0H482L437 206H426L381 0H115Z" />
<glyph unicode="x" horiz-adv-x="586" d="M0 0L156 260L6 510H237L297 389H305L361 510H579L429 260L586 0H355L289 131H280L218 0H0Z" />
<glyph unicode="y" horiz-adv-x="588" d="M272 -206Q239 -206 204 -204T138 -199T86 -191V-56Q108 -56 130 -56T174 -56T218 -56Q260 -56 283 -55T316 -47T328 -24T330 21V73H320Q303 46 280 32T234 13T189 8Q140 8 111 21T68 59T49 122T44 207V510H258V257Q258
226 259 209T263 185T273 176T293 174Q307 174 314 175T325 184T329 209T330 257V510H544V55Q544 -9 538 -57T506 -139T426 -189T272 -206Z" />
<glyph unicode="z" horiz-adv-x="537" d="M35 0V142L233 360H47V510H500V368L302 150H502V0H35Z" />
<glyph unicode="{" horiz-adv-x="390" d="M237 -150Q207 -136 182 -115T137 -66T108 -8T98 54V159Q98 186 91 205T68 236T21 256V337Q51 344 67 356T91 388T98 434V539Q98 570 108 600T137 658T181 708T237 743H370Q351 725 335 703T308 658T290 611T283 568V445Q283
389 252 350T151 300V293Q221 282 252 243T283 148V25Q283 5 289 -18T307 -64T335 -110T370 -150H237Z" />
<glyph unicode="|" horiz-adv-x="309" d="M65 -161V743H244V-161H65Z" />
<glyph unicode="}" horiz-adv-x="390" d="M20 -150Q39 -132 55 -110T82 -65T100 -18T107 25V148Q107 204 138 243T239 293V300Q169 311 138 350T107 445V568Q107 588 101 611T83 657T55 703T20 743H153Q183 730 208 708T253 659T282 601T292 539V434Q292 408 299
389T322 357T369 337V256Q339 249 323 237T299 205T292 159V54Q292 23 282 -7T253 -65T209 -114T153 -150H20Z" />
<glyph unicode="~" horiz-adv-x="497" d="M44 220Q44 269 48 304T74 358T148 377Q178 377 209 372T266 361Q286 357 303 354T331 351Q348 351 350 359T353 389H453Q453 341 449 306T423 251T349 232Q319 232 288 237T230 248Q211 252 194 255T166 258Q150 258
147 249T144 220H44Z" />
<glyph unicode="&#xa0;" horiz-adv-x="264" />
<glyph unicode="&#xa1;" horiz-adv-x="358" d="M58 -178V-162Q58 -153 60 -127T66 -62T75 27T88 136T102 258H257Q265 195 271 137T283 28T293 -62T299 -127T301 -162V-178H58ZM70 339V510H289V339H70Z" />
<glyph unicode="&#xa2;" horiz-adv-x="469" d="M266 68Q201 68 158 80T89 122T53 205T42 341Q42 390 46 432T61 508T95 566T152 604T240 617Q271 617 297 617T352 612T424 598V455Q408 457 380 459T325 461Q301 461 287 457T266 440T256 405T254 342Q254 303 256
280T265 244T286 228T325 223Q348 223 377 225T428 230V87Q412 83 390 79T337 71T266 68ZM184 -8V696H340V-8H184Z" />
<glyph unicode="&#xa3;" horiz-adv-x="612" d="M38 0V167H112V275H38V430H113V440Q113 508 125 556T169 636T255 681T395 696Q438 696 486 691T565 677V520Q544 523 522 525T480 528T448 529Q416 529 396 526T365 514T350 487T346 440V430H488V275H346V167H575V0H38Z" />
<glyph unicode="&#xa4;" horiz-adv-x="682" d="M133 1L32 102L101 171Q91 202 89 244T86 345Q86 401 88 443T100 516L30 586L133 689L217 605Q242 610 272 611T341 613Q380 613 411 611T467 604L551 688L652 587L582 517Q592 486 594 444T597 345Q597 288 595
246T582 173L652 103L549 0L465 84Q440 80 410 78T341 76Q303 76 272 78T216 84L133 1ZM341 226Q357 226 365 229T378 243T383 278T384 345Q384 387 383 411T378 446T366 460T341 463Q325 463 317 460T305 446T300 411T299 345Q299 302 300 278T304 243T316 229T341
226Z" />
<glyph unicode="&#xa5;" horiz-adv-x="634" d="M200 0V195H37V293H183L12 688H239L316 438H323L399 688H622L451 293H595V195H434V0H200ZM37 347V445H595V347H37Z" />
<glyph unicode="&#xa6;" horiz-adv-x="309" d="M65 390V743H244V390H65ZM65 -161V192H244V-161H65Z" />
<glyph unicode="&#xa7;" horiz-adv-x="688" d="M330 -171Q284 -171 243 -168T170 -161T122 -153V-3Q144 -4 177 -6T249 -9T328 -10Q342 -10 349 -9T358 -3T361 9Q361 16 359 19T346 26T313 37L183 77Q142 90 113 102T66 132T38 183T29 270Q29 314 33 344T49 394T79
426T128 447Q124 462 122 481T120 523Q120 581 138 615T189 667T265 690T357 696Q404 696 445 693T517 686T566 678V528Q535 530 478 532T358 535Q345 535 339 534T330 528T327 516Q327 509 329 506T344 498T383 485L515 444Q551 433 578 422T622 392T648 341T657
255Q657 211 653 181T637 131T607 99T558 78Q563 62 565 44T568 2Q568 -56 550 -90T498 -142T422 -165T330 -171ZM227 296Q227 276 230 265T243 249T271 237L422 189Q439 184 444 183T450 181Q457 181 459 190T461 229Q461 249 458 259T447 275T426 285L272 334Q256
339 248 341T238 344Q231 344 229 335T227 296Z" />
<glyph unicode="&#xa8;" horiz-adv-x="389" d="M0 576V700H165V576H0ZM224 576V700H389V576H224Z" />
<glyph unicode="&#xa9;" horiz-adv-x="757" d="M379 -8Q294 -8 238 -1T148 26T99 85T78 187T73 344Q73 438 78 501T99 603T148 662T237 689T379 696Q465 696 521 689T610 662T659 603T679 501T684 344Q684 250 680 187T659 85T610 26T521 -1T379 -8ZM399 155Q346
155 314 165T266 197T245 255T240 344Q240 397 245 433T266 491T314 523T399 533Q424 533 451 531T498 523V439Q482 441 461 442T429 443Q405 443 392 440T373 428T366 398T365 344Q365 310 366 290T373 261T392 248T429 245Q449 245 469 246T500 249V163Q479 159
451 157T399 155ZM379 63Q447 63 489 66T556 82T590 125T603 208T606 344Q606 427 604 480T591 563T556 606T490 622T379 625Q312 625 269 622T202 606T167 563T154 480T151 344Q151 261 153 208T166 125T201 82T269 66T379 63Z" />
<glyph unicode="&#xaa;" horiz-adv-x="424" d="M129 312Q96 312 74 324T41 363T29 427Q29 469 38 493T74 527T148 538Q156 538 170 538T202 537T232 535V548Q232 567 227 575T206 584T155 586Q144 586 132 586T100 585T49 582V682Q84 689 123 692T203 696Q268
696 305 687T359 658T381 608T386 538V318H235L232 362H225Q211 339 196 329T164 315T129 312ZM201 412Q208 412 212 413T221 416T228 422Q231 426 231 434T232 455V475H203Q181 475 176 470T171 441Q171 425 175 419T201 412Z" />
<glyph unicode="&#xab;" horiz-adv-x="521" d="M141 99L9 304L141 510H272L173 304L272 99H141ZM349 99L217 304L349 510H480L381 304L480 99H349Z" />
<glyph unicode="&#xac;" horiz-adv-x="540" d="M324 53V181H70V324H469V53H324Z" />
<glyph unicode="&#xad;" horiz-adv-x="381" d="M45 205V363H336V205H45Z" />
<glyph unicode="&#xae;" horiz-adv-x="757" d="M379 -8Q294 -8 238 -1T148 26T99 85T78 187T73 344Q73 438 78 501T99 603T148 662T237 689T379 696Q465 696 521 689T610 662T659 603T679 501T684 344Q684 250 680 187T659 85T610 26T521 -1T379 -8ZM379 63Q447
63 489 66T556 82T590 125T603 208T606 344Q606 427 604 480T591 563T556 606T490 622T379 625Q312 625 269 622T202 606T167 563T154 480T151 344Q151 261 153 208T166 125T201 82T269 66T379 63ZM227 159V529H415Q467 529 492 516T525 475T533 405Q533 368 526
340T491 297L541 159H418L382 282H345V159H227ZM345 366H379Q394 366 401 368T411 377T413 403Q413 420 412 428T403 438T378 441H345V366Z" />
<glyph unicode="&#xaf;" horiz-adv-x="358" d="M0 576V688H358V576H0Z" />
<glyph unicode="&#xb0;" horiz-adv-x="400" d="M201 397Q148 397 117 403T70 425T49 470T44 546Q44 592 49 621T69 667T116 689T201 696Q254 696 285 690T331 667T351 622T356 546Q356 500 352 471T332 425T285 403T201 397ZM201 478Q219 478 226 482T235 502T237
546Q237 576 236 590T227 610T201 615Q183 615 175 610T165 591T163 546Q163 517 165 502T175 483T201 478Z" />
<glyph unicode="&#xb1;" horiz-adv-x="540" d="M197 192V320H70V463H197V592H342V463H470V320H342V192H197ZM70 0V142H470V0H70Z" />
<glyph unicode="&#xb2;" horiz-adv-x="349" d="M26 420V508Q26 529 29 551T47 593T94 626L163 654Q176 659 181 662T188 672T190 689Q190 700 187 704T174 710T147 712Q129 712 98 710T34 704V792Q63 798 103 802T177 806Q216 806 249 799T301 768T321 695Q321
660 316 637T295 600T253 576L174 547Q163 544 158 541T152 533T151 522V515H321V420H26Z" />
<glyph unicode="&#xb3;" horiz-adv-x="348" d="M159 416Q130 416 93 419T28 428V516Q59 513 92 511T146 509Q175 509 182 512T190 536Q190 559 184 563T155 567H95V658H155Q171 658 177 660T186 668T188 686Q188 699 185 704T172 710T140 712Q115 712 84 710T30
705V793Q57 798 94 802T159 806Q221 806 255 795T304 761T319 705Q319 664 303 644T251 616V613Q286 605 304 587T322 522Q322 489 309 466T261 429T159 416Z" />
<glyph unicode="&#xb4;" horiz-adv-x="284" d="M0 565V570L86 713H284V708L148 565H0Z" />
<glyph unicode="&#xb5;" horiz-adv-x="588" d="M44 -189V510H258V241Q258 210 259 193T263 169T273 160T293 158Q307 158 314 159T325 168T329 193T330 241V510H544V0H337L333 57H323Q310 42 296 29T261 8T209 0Q188 0 164 8T119 34T85 76L276 36H258V-189H44Z" />
<glyph unicode="&#xb6;" horiz-adv-x="668" d="M282 -144V222Q212 222 167 227T96 245T57 284T42 351T38 454Q38 515 41 556T57 624T95 664T167 683T282 688H411V-144H282ZM477 -144V688H607V-144H477Z" />
<glyph unicode="&#xb7;" horiz-adv-x="347" d="M64 214V385H283V214H64Z" />
<glyph unicode="&#xb8;" horiz-adv-x="221" d="M0 -190V-185L87 18H221V13L187 -190H0Z" />
<glyph unicode="&#xb9;" horiz-adv-x="231" d="M69 420V679L3 654V749L110 801H195V420H69Z" />
<glyph unicode="&#xba;" horiz-adv-x="446" d="M223 313Q166 313 130 319T74 345T47 403T39 504Q39 567 46 605T73 663T129 689T223 696Q280 696 316 690T372 664T399 606T407 504Q407 441 400 403T373 346T317 320T223 313ZM223 422Q234 422 240 424T250 433T253
458T254 504Q254 534 254 550T250 575T241 585T223 587Q211 587 205 585T196 575T193 551T192 504Q192 475 192 458T196 434T205 424T223 422Z" />
<glyph unicode="&#xbb;" horiz-adv-x="521" d="M41 99L140 304L41 510H172L304 304L172 99H41ZM249 99L348 304L249 510H380L512 304L380 99H249Z" />
<glyph unicode="&#xbc;" horiz-adv-x="726" d="M69 308V567L3 542V637L110 689H195V308H69ZM31 0L480 688H605L156 0H31ZM544 0V69H372V152L487 381H627L505 162H550L590 230H672V162H713V69H672V0H544Z" />
<glyph unicode="&#xbd;" horiz-adv-x="754" d="M69 308V567L3 542V637L110 689H195V308H69ZM31 0L480 688H605L156 0H31ZM431 0V88Q431 109 434 131T452 173T499 206L568 234Q581 239 586 242T593 252T595 269Q595 280 592 284T579 290T552 292Q534 292 503 290T439
284V372Q468 378 508 382T582 386Q621 386 654 379T706 348T726 275Q726 240 721 217T700 180T658 156L579 127Q568 124 563 121T557 113T556 102V95H726V0H431Z" />
<glyph unicode="&#xbe;" horiz-adv-x="843" d="M159 304Q130 304 93 307T28 316V404Q59 401 92 399T146 397Q175 397 182 400T190 424Q190 447 184 451T155 455H95V546H155Q171 546 177 548T186 556T188 574Q188 587 185 592T172 598T140 600Q115 600 84 598T30
593V681Q57 686 94 690T159 694Q221 694 255 683T304 649T319 593Q319 552 303 532T251 504V501Q286 493 304 475T322 410Q322 377 309 354T261 317T159 304ZM148 0L597 688H722L273 0H148ZM661 0V69H489V152L604 381H744L622 162H667L707 230H789V162H830V69H789V0H661Z"
/>
<glyph unicode="&#xbf;" horiz-adv-x="470" d="M279 -186Q221 -186 178 -178T105 -150T62 -94T48 1Q48 41 53 68T69 114T99 145T145 167L189 182Q198 185 202 188T209 196T212 213T213 244V258H398V199Q398 157 390 133T366 97T324 75L304 68Q291 64 285 59T276
46T274 23Q274 3 279 -6T296 -17T331 -19Q347 -19 367 -19T408 -17T451 -13T491 -9V-166Q465 -172 429 -176T353 -183T279 -186ZM195 339V510H414V339H195Z" />
<glyph unicode="&#xc0;" horiz-adv-x="697" d="M-5 0L186 688H511L702 0H470L445 103H246L222 0H-5ZM284 263H406L349 500H340L284 263ZM270 743L134 886V891H332L418 748V743H270Z" />
<glyph unicode="&#xc1;" horiz-adv-x="697" d="M-5 0L186 688H511L702 0H470L445 103H246L222 0H-5ZM284 263H406L349 500H340L284 263ZM243 743V748L329 891H527V886L391 743H243Z" />
<glyph unicode="&#xc2;" horiz-adv-x="697" d="M-5 0L186 688H511L702 0H470L445 103H246L222 0H-5ZM284 263H406L349 500H340L284 263ZM165 743V751L254 891H443L533 751V743H399L348 815L299 743H165Z" />
<glyph unicode="&#xc3;" horiz-adv-x="697" d="M-5 0L186 688H511L702 0H470L445 103H246L222 0H-5ZM284 263H406L349 500H340L284 263ZM144 732Q144 781 148 816T174 870T248 889Q278 889 309 884T365 873Q386 869 403 866T431 863Q448 863 450 871T453 901H553Q553
853 549 818T523 763T449 744Q419 744 389 750T332 760Q311 764 294 767T266 770Q250 770 247 761T244 732H144Z" />
<glyph unicode="&#xc4;" horiz-adv-x="697" d="M-5 0L186 688H511L702 0H470L445 103H246L222 0H-5ZM284 263H406L349 500H340L284 263ZM154 754V878H319V754H154ZM378 754V878H543V754H378Z" />
<glyph unicode="&#xc5;" horiz-adv-x="683" d="M-5 0L186 688H511L702 0H470L445 103H246L222 0H-5ZM284 263H406L349 500H340L284 263ZM384 622Q332 622 301 628T255 648T234 686T229 744Q229 779 234 803T254 841T301 861T384 868Q436 868 467 862T514 841T535
803T540 744Q540 710 535 687T514 649T467 628T384 622ZM384 699Q410 699 420 702T433 716T435 744Q435 763 433 773T421 787T384 791Q359 791 349 787T336 773T334 744Q334 726 336 716T348 703T384 699Z" />
<glyph unicode="&#xc6;" horiz-adv-x="980" d="M-25 0L284 688H932V521H609L618 429H885V266H636L646 167H932V0H455L445 106H242L202 0H-25ZM303 266H431L409 521H400L303 266Z" />
<glyph unicode="&#xc7;" horiz-adv-x="567" d="M342 -8Q262 -8 208 3T121 38T71 103T48 203T42 344Q42 425 48 484T70 584T120 649T208 685T342 696Q374 696 408 694T473 687T528 677V521Q488 524 463 526T422 528T397 529Q361 529 339 526T303 513T285 482T278
429T277 344Q277 293 278 260T284 206T303 175T338 162T397 159Q427 159 465 161T532 167V8Q510 4 478 0T410 -6T342 -8ZM176 -190V-185L263 18H397V13L363 -190H176Z" />
<glyph unicode="&#xc8;" horiz-adv-x="603" d="M51 0V688H555V521H284V429H508V266H284V167H555V0H51ZM229 743L93 886V891H291L377 748V743H229Z" />
<glyph unicode="&#xc9;" horiz-adv-x="603" d="M51 0V688H555V521H284V429H508V266H284V167H555V0H51ZM202 743V748L288 891H486V886L350 743H202Z" />
<glyph unicode="&#xca;" horiz-adv-x="603" d="M51 0V688H555V521H284V429H508V266H284V167H555V0H51ZM124 743V751L213 891H402L492 751V743H358L307 815L258 743H124Z" />
<glyph unicode="&#xcb;" horiz-adv-x="603" d="M51 0V688H555V521H284V429H508V266H284V167H555V0H51ZM113 754V878H278V754H113ZM337 754V878H502V754H337Z" />
<glyph unicode="&#xcc;" horiz-adv-x="336" d="M51 0V688H285V0H51ZM89 743L-47 886V891H151L237 748V743H89Z" />
<glyph unicode="&#xcd;" horiz-adv-x="336" d="M51 0V688H285V0H51ZM62 743V748L148 891H346V886L210 743H62Z" />
<glyph unicode="&#xce;" horiz-adv-x="336" d="M51 0V688H285V0H51ZM-16 743V751L73 891H262L352 751V743H218L167 815L118 743H-16Z" />
<glyph unicode="&#xcf;" horiz-adv-x="336" d="M51 0V688H285V0H51ZM-27 754V878H138V754H-27ZM197 754V878H362V754H197Z" />
<glyph unicode="&#xd0;" horiz-adv-x="670" d="M51 0V280H-9V417H51V688H306Q402 688 462 678T557 645T606 583T624 485T628 344Q628 262 625 204T606 106T557 43T463 10T306 0H51ZM285 167H309Q334 167 350 169T375 180T387 208T392 259T393 343Q393 395 392
428T388 480T375 508T350 519T309 521H285V417H347V280H285V167Z" />
<glyph unicode="&#xd1;" horiz-adv-x="705" d="M51 0V688H290L424 422H431V688H654V0H439L280 321H274V0H51ZM153 732Q153 781 157 816T183 870T257 889Q287 889 318 884T374 873Q395 869 412 866T440 863Q457 863 459 871T462 901H562Q562 853 558 818T532 763T458
744Q428 744 398 750T341 760Q320 764 303 767T275 770Q259 770 256 761T253 732H153Z" />
<glyph unicode="&#xd2;" horiz-adv-x="695" d="M347 -8Q256 -8 199 3T109 38T63 103T45 203T42 344Q42 425 45 484T62 585T109 650T198 685T347 696Q438 696 495 685T585 650T632 585T649 485T653 344Q653 263 650 204T632 103T586 38T496 3T347 -8ZM347 159Q368
159 381 161T402 172T413 200T417 255T418 344Q418 398 417 433T413 487T403 516T382 527T347 529Q326 529 313 527T292 516T282 488T278 433T277 344Q277 290 277 255T281 201T292 172T312 161T347 159ZM269 743L133 886V891H331L417 748V743H269Z" />
<glyph unicode="&#xd3;" horiz-adv-x="695" d="M347 -8Q256 -8 199 3T109 38T63 103T45 203T42 344Q42 425 45 484T62 585T109 650T198 685T347 696Q438 696 495 685T585 650T632 585T649 485T653 344Q653 263 650 204T632 103T586 38T496 3T347 -8ZM347 159Q368
159 381 161T402 172T413 200T417 255T418 344Q418 398 417 433T413 487T403 516T382 527T347 529Q326 529 313 527T292 516T282 488T278 433T277 344Q277 290 277 255T281 201T292 172T312 161T347 159ZM242 743V748L328 891H526V886L390 743H242Z" />
<glyph unicode="&#xd4;" horiz-adv-x="695" d="M347 -8Q256 -8 199 3T109 38T63 103T45 203T42 344Q42 425 45 484T62 585T109 650T198 685T347 696Q438 696 495 685T585 650T632 585T649 485T653 344Q653 263 650 204T632 103T586 38T496 3T347 -8ZM347 159Q368
159 381 161T402 172T413 200T417 255T418 344Q418 398 417 433T413 487T403 516T382 527T347 529Q326 529 313 527T292 516T282 488T278 433T277 344Q277 290 277 255T281 201T292 172T312 161T347 159ZM164 743V751L253 891H442L532 751V743H398L347 815L298
743H164Z" />
<glyph unicode="&#xd5;" horiz-adv-x="695" d="M347 -8Q256 -8 199 3T109 38T63 103T45 203T42 344Q42 425 45 484T62 585T109 650T198 685T347 696Q438 696 495 685T585 650T632 585T649 485T653 344Q653 263 650 204T632 103T586 38T496 3T347 -8ZM347 159Q368
159 381 161T402 172T413 200T417 255T418 344Q418 398 417 433T413 487T403 516T382 527T347 529Q326 529 313 527T292 516T282 488T278 433T277 344Q277 290 277 255T281 201T292 172T312 161T347 159ZM143 732Q143 781 147 816T173 870T247 889Q277 889 308
884T364 873Q385 869 402 866T430 863Q447 863 449 871T452 901H552Q552 853 548 818T522 763T448 744Q418 744 388 750T331 760Q310 764 293 767T265 770Q249 770 246 761T243 732H143Z" />
<glyph unicode="&#xd6;" horiz-adv-x="695" d="M347 -8Q256 -8 199 3T109 38T63 103T45 203T42 344Q42 425 45 484T62 585T109 650T198 685T347 696Q438 696 495 685T585 650T632 585T649 485T653 344Q653 263 650 204T632 103T586 38T496 3T347 -8ZM347 159Q368
159 381 161T402 172T413 200T417 255T418 344Q418 398 417 433T413 487T403 516T382 527T347 529Q326 529 313 527T292 516T282 488T278 433T277 344Q277 290 277 255T281 201T292 172T312 161T347 159ZM153 754V878H318V754H153ZM377 754V878H542V754H377Z" />
<glyph unicode="&#xd7;" horiz-adv-x="537" d="M173 56L72 158L167 253L70 350L173 453L270 356L366 452L467 351L371 255L467 159L364 56L268 152L173 56Z" />
<glyph unicode="&#xd8;" horiz-adv-x="695" d="M42 -55L479 743H653L215 -55H42ZM347 -8Q256 -8 199 3T109 38T63 103T45 203T42 344Q42 425 45 484T62 585T109 650T198 685T347 696Q438 696 495 685T585 650T632 585T649 485T653 344Q653 263 650 204T632 103T586
38T496 3T347 -8ZM347 159Q368 159 381 161T402 172T413 200T417 255T418 344Q418 398 417 433T413 487T403 516T382 527T347 529Q326 529 313 527T292 516T282 488T278 433T277 344Q277 290 277 255T281 201T292 172T312 161T347 159Z" />
<glyph unicode="&#xd9;" horiz-adv-x="675" d="M337 -8Q252 -8 198 2T114 36T71 96T54 188T51 316V688H285V278Q285 237 286 214T291 179T307 165T337 162Q357 162 367 165T383 179T389 213T390 278V688H624V316Q624 243 621 189T605 97T561 36T476 3T337 -8ZM259
743L123 886V891H321L407 748V743H259Z" />
<glyph unicode="&#xda;" horiz-adv-x="675" d="M337 -8Q252 -8 198 2T114 36T71 96T54 188T51 316V688H285V278Q285 237 286 214T291 179T307 165T337 162Q357 162 367 165T383 179T389 213T390 278V688H624V316Q624 243 621 189T605 97T561 36T476 3T337 -8ZM232
743V748L318 891H516V886L380 743H232Z" />
<glyph unicode="&#xdb;" horiz-adv-x="675" d="M337 -8Q252 -8 198 2T114 36T71 96T54 188T51 316V688H285V278Q285 237 286 214T291 179T307 165T337 162Q357 162 367 165T383 179T389 213T390 278V688H624V316Q624 243 621 189T605 97T561 36T476 3T337 -8ZM154
743V751L243 891H432L522 751V743H388L337 815L288 743H154Z" />
<glyph unicode="&#xdc;" horiz-adv-x="675" d="M337 -8Q252 -8 198 2T114 36T71 96T54 188T51 316V688H285V278Q285 237 286 214T291 179T307 165T337 162Q357 162 367 165T383 179T389 213T390 278V688H624V316Q624 243 621 189T605 97T561 36T476 3T337 -8ZM143
754V878H308V754H143ZM367 754V878H532V754H367Z" />
<glyph unicode="&#xdd;" horiz-adv-x="662" d="M214 0V222L-3 688H235L330 432H337L432 688H665L448 222V0H214ZM225 743V748L311 891H509V886L373 743H225Z" />
<glyph unicode="&#xde;" horiz-adv-x="636" d="M52 0V688H285V592H404Q473 592 514 578T578 533T607 458T615 352Q615 297 609 253T581 178T518 130T404 113H285V0H52ZM285 276H316Q338 276 350 278T369 287T378 310T380 352Q380 379 378 395T370 418T351 427T316
429H285V276Z" />
<glyph unicode="&#xdf;" horiz-adv-x="607" d="M44 0V560Q44 625 67 667T148 729T304 750Q383 750 434 738T515 704T556 649T568 577Q568 509 540 475T452 432V428Q514 416 545 375T577 237Q577 170 567 125T529 52T453 12T326 0H301V150H306Q323 150 334 152T351
162T359 191T361 249Q361 299 357 320T340 345T303 350H296V500H303Q327 500 336 502T348 515T350 551Q350 573 347 584T334 598T309 601Q288 601 277 598T262 582T258 543V0H44Z" />
<glyph unicode="&#xe0;" horiz-adv-x="567" d="M166 -8Q120 -8 90 8T44 59T28 149Q28 206 41 239T90 287T193 302Q201 302 214 302T245 301T278 300T309 298V315Q309 335 306 346T292 361T261 367T203 368Q179 368 154 367T103 365T55 362V500Q93 507 147 512T269
518Q341 518 388 509T462 483T503 439T519 379T523 302V0H314L310 56H300Q279 27 258 13T214 -4T166 -8ZM267 129Q279 129 286 131T298 137T305 148Q308 155 308 165T309 188V215H269Q249 215 240 212T228 199T225 168Q225 154 227 145T238 133T267 129ZM225 565L89
708V713H287L373 570V565H225Z" />
<glyph unicode="&#xe1;" horiz-adv-x="567" d="M166 -8Q120 -8 90 8T44 59T28 149Q28 206 41 239T90 287T193 302Q201 302 214 302T245 301T278 300T309 298V315Q309 335 306 346T292 361T261 367T203 368Q179 368 154 367T103 365T55 362V500Q93 507 147 512T269
518Q341 518 388 509T462 483T503 439T519 379T523 302V0H314L310 56H300Q279 27 258 13T214 -4T166 -8ZM267 129Q279 129 286 131T298 137T305 148Q308 155 308 165T309 188V215H269Q249 215 240 212T228 199T225 168Q225 154 227 145T238 133T267 129ZM166 565V570L252
713H450V708L314 565H166Z" />
<glyph unicode="&#xe2;" horiz-adv-x="567" d="M166 -8Q120 -8 90 8T44 59T28 149Q28 206 41 239T90 287T193 302Q201 302 214 302T245 301T278 300T309 298V315Q309 335 306 346T292 361T261 367T203 368Q179 368 154 367T103 365T55 362V500Q93 507 147 512T269
518Q341 518 388 509T462 483T503 439T519 379T523 302V0H314L310 56H300Q279 27 258 13T214 -4T166 -8ZM267 129Q279 129 286 131T298 137T305 148Q308 155 308 165T309 188V215H269Q249 215 240 212T228 199T225 168Q225 154 227 145T238 133T267 129ZM104 565V573L193
713H382L472 573V565H338L287 637L238 565H104Z" />
<glyph unicode="&#xe3;" horiz-adv-x="567" d="M166 -8Q120 -8 90 8T44 59T28 149Q28 206 41 239T90 287T193 302Q201 302 214 302T245 301T278 300T309 298V315Q309 335 306 346T292 361T261 367T203 368Q179 368 154 367T103 365T55 362V500Q93 507 147 512T269
518Q341 518 388 509T462 483T503 439T519 379T523 302V0H314L310 56H300Q279 27 258 13T214 -4T166 -8ZM267 129Q279 129 286 131T298 137T305 148Q308 155 308 165T309 188V215H269Q249 215 240 212T228 199T225 168Q225 154 227 145T238 133T267 129ZM83 554Q83
603 87 638T113 692T187 711Q217 711 248 706T304 695Q325 691 342 688T370 685Q387 685 389 693T392 723H492Q492 675 488 640T462 585T388 566Q358 566 328 572T271 582Q250 586 233 589T205 592Q189 592 186 583T183 554H83Z" />
<glyph unicode="&#xe4;" horiz-adv-x="567" d="M166 -8Q120 -8 90 8T44 59T28 149Q28 206 41 239T90 287T193 302Q201 302 214 302T245 301T278 300T309 298V315Q309 335 306 346T292 361T261 367T203 368Q179 368 154 367T103 365T55 362V500Q93 507 147 512T269
518Q341 518 388 509T462 483T503 439T519 379T523 302V0H314L310 56H300Q279 27 258 13T214 -4T166 -8ZM267 129Q279 129 286 131T298 137T305 148Q308 155 308 165T309 188V215H269Q249 215 240 212T228 199T225 168Q225 154 227 145T238 133T267 129ZM94 576V700H259V576H94ZM318
576V700H483V576H318Z" />
<glyph unicode="&#xe5;" horiz-adv-x="567" d="M166 -8Q120 -8 90 8T44 59T28 149Q28 206 41 239T90 287T193 302Q201 302 214 302T245 301T278 300T309 298V315Q309 335 306 346T292 361T261 367T203 368Q179 368 154 367T103 365T55 362V500Q93 507 147 512T269
518Q341 518 388 509T462 483T503 439T519 379T523 302V0H314L310 56H300Q279 27 258 13T214 -4T166 -8ZM267 129Q279 129 286 131T298 137T305 148Q308 155 308 165T309 188V215H269Q249 215 240 212T228 199T225 168Q225 154 227 145T238 133T267 129ZM287 551Q235
551 204 557T158 577T137 615T132 673Q132 708 137 732T157 770T204 790T287 797Q339 797 370 791T417 770T438 732T443 673Q443 639 438 616T417 578T370 557T287 551ZM287 628Q313 628 323 631T336 645T338 673Q338 692 336 702T324 716T287 720Q262 720 252
716T239 702T237 673Q237 655 239 645T251 632T287 628Z" />
<glyph unicode="&#xe6;" horiz-adv-x="842" d="M216 -8Q156 -8 119 1T62 29T35 77T28 149Q28 206 41 239T90 287T193 302Q204 302 224 302T267 300T309 298V315Q309 335 306 346T292 361T261 367T203 368Q183 368 160 368T110 366T55 362V500Q90 507 139 512T249
518Q304 518 346 509T419 479Q449 499 490 508T585 518Q652 518 694 510T759 483T793 434T805 359T807 254V215H523Q523 188 526 173T540 152T574 144T638 142Q655 142 679 143T731 145T787 149V12Q767 6 735 2T664 -5T587 -8Q539 -8 503 -4T440 8T395 29Q368 12
339 4T280 -6T216 -8ZM267 129Q282 129 290 132T303 142T308 157Q309 165 309 172T309 188V215H269Q249 215 240 212T228 199T225 168Q225 154 227 145T238 133T267 129ZM609 260Q609 306 609 331T605 367T592 380T565 383Q551 383 543 381T530 372T525 347T523
300H642L609 260Z" />
<glyph unicode="&#xe7;" horiz-adv-x="466" d="M264 -8Q196 -8 152 4T83 40T47 95T33 167T30 254Q30 300 32 340T46 413T82 469T151 505T264 518Q308 518 349 514T429 500V362Q411 364 381 366T324 368Q297 368 282 364T259 349T249 315T247 255Q247 218 249 196T258
162T280 146T324 142Q347 142 377 144T433 149V11Q392 2 349 -3T264 -8ZM127 -190V-185L214 18H348V13L314 -190H127Z" />
<glyph unicode="&#xe8;" horiz-adv-x="558" d="M303 -8Q224 -8 173 1T93 30T51 81T34 155T30 254Q30 325 36 375T65 456T140 503T281 518Q354 518 399 510T470 483T507 434T520 359T523 254V215H239Q239 188 242 173T256 152T290 144T354 142Q371 142 395 143T447
145T503 149V12Q483 6 451 2T380 -5T303 -8ZM325 284V300Q325 330 324 347T319 371T305 381T281 383Q267 383 259 381T246 372T241 347T239 300H341L325 284ZM220 565L84 708V713H282L368 570V565H220Z" />
<glyph unicode="&#xe9;" horiz-adv-x="558" d="M303 -8Q224 -8 173 1T93 30T51 81T34 155T30 254Q30 325 36 375T65 456T140 503T281 518Q354 518 399 510T470 483T507 434T520 359T523 254V215H239Q239 188 242 173T256 152T290 144T354 142Q371 142 395 143T447
145T503 149V12Q483 6 451 2T380 -5T303 -8ZM325 284V300Q325 330 324 347T319 371T305 381T281 383Q267 383 259 381T246 372T241 347T239 300H341L325 284ZM161 565V570L247 713H445V708L309 565H161Z" />
<glyph unicode="&#xea;" horiz-adv-x="558" d="M303 -8Q224 -8 173 1T93 30T51 81T34 155T30 254Q30 325 36 375T65 456T140 503T281 518Q354 518 399 510T470 483T507 434T520 359T523 254V215H239Q239 188 242 173T256 152T290 144T354 142Q371 142 395 143T447
145T503 149V12Q483 6 451 2T380 -5T303 -8ZM325 284V300Q325 330 324 347T319 371T305 381T281 383Q267 383 259 381T246 372T241 347T239 300H341L325 284ZM99 565V573L188 713H377L467 573V565H333L282 637L233 565H99Z" />
<glyph unicode="&#xeb;" horiz-adv-x="558" d="M303 -8Q224 -8 173 1T93 30T51 81T34 155T30 254Q30 325 36 375T65 456T140 503T281 518Q354 518 399 510T470 483T507 434T520 359T523 254V215H239Q239 188 242 173T256 152T290 144T354 142Q371 142 395 143T447
145T503 149V12Q483 6 451 2T380 -5T303 -8ZM325 284V300Q325 330 324 347T319 371T305 381T281 383Q267 383 259 381T246 372T241 347T239 300H341L325 284ZM89 576V700H254V576H89ZM313 576V700H478V576H313Z" />
<glyph unicode="&#xec;" horiz-adv-x="306" d="M44 0V510H262V0H44ZM346 565L210 708V713H408L494 570V565H346Z" />
<glyph unicode="&#xed;" horiz-adv-x="306" d="M44 0V510H262V0H44ZM31 565V570L117 713H315V708L179 565H31Z" />
<glyph unicode="&#xee;" horiz-adv-x="306" d="M44 0V510H262V0H44ZM225 565V573L314 713H503L593 573V565H459L408 637L359 565H225Z" />
<glyph unicode="&#xef;" horiz-adv-x="306" d="M44 0V510H262V0H44ZM214 576V700H379V576H214ZM438 576V700H603V576H438Z" />
<glyph unicode="&#xf0;" horiz-adv-x="571" d="M285 -8Q212 -8 165 -1T90 25T50 73T34 148T30 255Q30 327 35 377T59 458T113 504T209 518Q232 518 249 516T288 510L294 515Q290 531 284 545T271 572L136 555V665L201 673Q184 692 166 708T130 739V743H358Q373
731 382 721T400 700L536 718V608L478 599Q497 562 510 518T532 418Q535 395 537 370T540 316T541 255Q541 193 538 149T521 74T481 25T406 0T285 -8ZM285 142Q301 142 309 144T322 158T327 192T328 255Q328 296 327 318T322 352T310 365T285 368Q269 368 261 366T249
352T244 319T243 255Q243 215 244 192T248 158T260 145T285 142Z" />
<glyph unicode="&#xf1;" horiz-adv-x="588" d="M44 0V510H251L255 453H265Q283 480 306 494T354 513T399 518Q448 518 477 505T520 467T539 404T544 319V0H330V269Q330 300 329 317T325 341T315 350T295 352Q282 352 274 351T263 342T259 317T258 269V0H44ZM89
554Q89 603 93 638T119 692T193 711Q223 711 254 706T310 695Q331 691 348 688T376 685Q393 685 395 693T398 723H498Q498 675 494 640T468 585T394 566Q364 566 334 572T277 582Q256 586 239 589T211 592Q195 592 192 583T189 554H89Z" />
<glyph unicode="&#xf2;" horiz-adv-x="571" d="M285 -8Q212 -8 165 -1T90 25T50 73T34 148T30 255Q30 317 33 361T49 436T89 485T164 510T285 518Q358 518 405 511T480 485T521 437T537 362T541 255Q541 193 538 149T521 74T481 25T406 0T285 -8ZM285 142Q301
142 309 144T322 158T327 192T328 255Q328 296 327 318T322 352T310 365T285 368Q269 368 261 366T249 352T244 319T243 255Q243 215 244 192T248 158T260 145T285 142ZM223 565L87 708V713H285L371 570V565H223Z" />
<glyph unicode="&#xf3;" horiz-adv-x="571" d="M285 -8Q212 -8 165 -1T90 25T50 73T34 148T30 255Q30 317 33 361T49 436T89 485T164 510T285 518Q358 518 405 511T480 485T521 437T537 362T541 255Q541 193 538 149T521 74T481 25T406 0T285 -8ZM285 142Q301
142 309 144T322 158T327 192T328 255Q328 296 327 318T322 352T310 365T285 368Q269 368 261 366T249 352T244 319T243 255Q243 215 244 192T248 158T260 145T285 142ZM164 565V570L250 713H448V708L312 565H164Z" />
<glyph unicode="&#xf4;" horiz-adv-x="571" d="M285 -8Q212 -8 165 -1T90 25T50 73T34 148T30 255Q30 317 33 361T49 436T89 485T164 510T285 518Q358 518 405 511T480 485T521 437T537 362T541 255Q541 193 538 149T521 74T481 25T406 0T285 -8ZM285 142Q301
142 309 144T322 158T327 192T328 255Q328 296 327 318T322 352T310 365T285 368Q269 368 261 366T249 352T244 319T243 255Q243 215 244 192T248 158T260 145T285 142ZM102 565V573L191 713H380L470 573V565H336L285 637L236 565H102Z" />
<glyph unicode="&#xf5;" horiz-adv-x="571" d="M285 -8Q212 -8 165 -1T90 25T50 73T34 148T30 255Q30 317 33 361T49 436T89 485T164 510T285 518Q358 518 405 511T480 485T521 437T537 362T541 255Q541 193 538 149T521 74T481 25T406 0T285 -8ZM285 142Q301
142 309 144T322 158T327 192T328 255Q328 296 327 318T322 352T310 365T285 368Q269 368 261 366T249 352T244 319T243 255Q243 215 244 192T248 158T260 145T285 142ZM81 554Q81 603 85 638T111 692T185 711Q215 711 246 706T302 695Q323 691 340 688T368 685Q385
685 387 693T390 723H490Q490 675 486 640T460 585T386 566Q356 566 326 572T269 582Q248 586 231 589T203 592Q187 592 184 583T181 554H81Z" />
<glyph unicode="&#xf6;" horiz-adv-x="571" d="M285 -8Q212 -8 165 -1T90 25T50 73T34 148T30 255Q30 317 33 361T49 436T89 485T164 510T285 518Q358 518 405 511T480 485T521 437T537 362T541 255Q541 193 538 149T521 74T481 25T406 0T285 -8ZM285 142Q301
142 309 144T322 158T327 192T328 255Q328 296 327 318T322 352T310 365T285 368Q269 368 261 366T249 352T244 319T243 255Q243 215 244 192T248 158T260 145T285 142ZM92 576V700H257V576H92ZM316 576V700H481V576H316Z" />
<glyph unicode="&#xf7;" horiz-adv-x="540" d="M70 181V324H470V181H70ZM197 7V121H342V7H197ZM197 385V499H342V385H197Z" />
<glyph unicode="&#xf8;" horiz-adv-x="571" d="M31 -55L367 565H541L204 -55H31ZM285 -8Q212 -8 165 -1T90 25T50 73T34 148T30 255Q30 317 33 361T49 436T89 485T164 510T285 518Q358 518 405 511T480 485T521 437T537 362T541 255Q541 193 538 149T521 74T481
25T406 0T285 -8ZM285 142Q301 142 309 144T322 158T327 192T328 255Q328 296 327 318T322 352T310 365T285 368Q269 368 261 366T249 352T244 319T243 255Q243 215 244 192T248 158T260 145T285 142Z" />
<glyph unicode="&#xf9;" horiz-adv-x="588" d="M189 -8Q140 -8 111 5T68 43T49 106T44 191V510H258V241Q258 210 259 193T263 169T273 160T293 158Q307 158 314 159T325 168T329 193T330 241V510H544V0H337L333 57H323Q306 30 283 16T235 -3T189 -8ZM231 565L95
708V713H293L379 570V565H231Z" />
<glyph unicode="&#xfa;" horiz-adv-x="588" d="M189 -8Q140 -8 111 5T68 43T49 106T44 191V510H258V241Q258 210 259 193T263 169T273 160T293 158Q307 158 314 159T325 168T329 193T330 241V510H544V0H337L333 57H323Q306 30 283 16T235 -3T189 -8ZM172 565V570L258
713H456V708L320 565H172Z" />
<glyph unicode="&#xfb;" horiz-adv-x="588" d="M189 -8Q140 -8 111 5T68 43T49 106T44 191V510H258V241Q258 210 259 193T263 169T273 160T293 158Q307 158 314 159T325 168T329 193T330 241V510H544V0H337L333 57H323Q306 30 283 16T235 -3T189 -8ZM110 565V573L199
713H388L478 573V565H344L293 637L244 565H110Z" />
<glyph unicode="&#xfc;" horiz-adv-x="588" d="M189 -8Q140 -8 111 5T68 43T49 106T44 191V510H258V241Q258 210 259 193T263 169T273 160T293 158Q307 158 314 159T325 168T329 193T330 241V510H544V0H337L333 57H323Q306 30 283 16T235 -3T189 -8ZM100 576V700H265V576H100ZM324
576V700H489V576H324Z" />
<glyph unicode="&#xfd;" horiz-adv-x="588" d="M272 -206Q239 -206 204 -204T138 -199T86 -191V-56Q108 -56 130 -56T174 -56T218 -56Q260 -56 283 -55T316 -47T328 -24T330 21V73H320Q303 46 280 32T234 13T189 8Q140 8 111 21T68 59T49 122T44 207V510H258V257Q258
226 259 209T263 185T273 176T293 174Q307 174 314 175T325 184T329 209T330 257V510H544V55Q544 -9 538 -57T506 -139T426 -189T272 -206ZM172 565V570L258 713H456V708L320 565H172Z" />
<glyph unicode="&#xfe;" horiz-adv-x="584" d="M44 -189V743H258V453H269Q284 480 304 494T349 513T400 518Q440 518 469 507T517 466T545 386T554 257Q554 179 545 128T517 48T468 6T397 -7Q360 -7 327 3T268 51H258V-189H44ZM299 157Q315 157 323 159T335 170T340
199T341 255Q341 291 340 311T336 340T324 351T299 353Q280 353 271 349T260 323Q259 311 259 295T258 255Q258 227 258 210T260 185Q264 165 272 161T299 157Z" />
<glyph unicode="&#xff;" horiz-adv-x="588" d="M272 -206Q239 -206 204 -204T138 -199T86 -191V-56Q108 -56 130 -56T174 -56T218 -56Q260 -56 283 -55T316 -47T328 -24T330 21V73H320Q303 46 280 32T234 13T189 8Q140 8 111 21T68 59T49 122T44 207V510H258V257Q258
226 259 209T263 185T273 176T293 174Q307 174 314 175T325 184T329 209T330 257V510H544V55Q544 -9 538 -57T506 -139T426 -189T272 -206ZM100 576V700H265V576H100ZM324 576V700H489V576H324Z" />
<glyph unicode="&#x2013;" horiz-adv-x="481" d="M37 234V375H444V234H37Z" />
<glyph unicode="&#x2014;" horiz-adv-x="881" d="M37 234V375H843V234H37Z" />
<glyph unicode="&#x2018;" horiz-adv-x="336" d="M65 377V502Q65 556 71 592T98 650T160 680T270 689V617Q240 617 225 611T205 591T200 551V537H270V377H65Z" />
<glyph unicode="&#x2019;" horiz-adv-x="336" d="M65 377V449Q97 449 111 455T130 475T135 515V529H65V689H270V564Q270 510 264 474T237 416T175 386T65 377Z" />
<glyph unicode="&#x201a;" horiz-adv-x="336" d="M65 -152V-80Q97 -80 111 -74T130 -54T135 -14V0H65V160H270V35Q270 -19 264 -55T237 -113T175 -143T65 -152Z" />
<glyph unicode="&#x201c;" horiz-adv-x="594" d="M323 377V502Q323 556 329 592T356 650T418 680T528 689V617Q498 617 483 611T463 591T458 551V537H528V377H323ZM65 377V502Q65 556 71 592T98 650T160 680T270 689V617Q240 617 225 611T205 591T200 551V537H270V377H65Z"
/>
<glyph unicode="&#x201d;" horiz-adv-x="594" d="M323 377V449Q355 449 369 455T388 475T393 515V529H323V689H528V564Q528 510 522 474T495 416T433 386T323 377ZM65 377V449Q97 449 111 455T130 475T135 515V529H65V689H270V564Q270 510 264 474T237 416T175
386T65 377Z" />
<glyph unicode="&#x201e;" horiz-adv-x="594" d="M323 -152V-80Q355 -80 369 -74T388 -54T393 -14V0H323V160H528V35Q528 -19 522 -55T495 -113T433 -143T323 -152ZM65 -152V-80Q97 -80 111 -74T130 -54T135 -14V0H65V160H270V35Q270 -19 264 -55T237 -113T175
-143T65 -152Z" />
<glyph unicode="&#x2022;" horiz-adv-x="408" d="M202 215Q156 215 131 219T93 237T78 275T75 342Q75 384 78 410T93 449T130 467T202 472Q249 472 276 468T315 450T330 410T333 342Q333 301 330 276T315 237T276 220T202 215Z" />
<glyph unicode="&#x2039;" horiz-adv-x="313" d="M141 99L9 304L141 510H272L173 304L272 99H141Z" />
<glyph unicode="&#x203a;" horiz-adv-x="313" d="M41 99L140 304L41 510H172L304 304L172 99H41Z" />
</font>
</defs>
</svg>
