<?xml version="1.0" standalone="no"?>
<!DOCTYPE svg PUBLIC "-//W3C//DTD SVG 1.1//EN" "http://www.w3.org/Graphics/SVG/1.1/DTD/svg11.dtd">
<svg xmlns="http://www.w3.org/2000/svg">
<defs >
<font id="Saira" horiz-adv-x="564" ><font-face
    font-family="Saira Thin SemiBold"
    units-per-em="1000"
    panose-1="0 0 0 0 0 0 0 0 0 0"
    ascent="1135"
    descent="-439"
    alphabetic="0" />
<glyph unicode=" " horiz-adv-x="247" />
<glyph unicode="!" horiz-adv-x="303" d="M107 222Q104 266 100 315T92 412T86 504T82 579T80 629V688H235V629Q235 612 234 580T230 504T223 413T215 315T208 222H107ZM85 0V131H230V0H85Z" />
<glyph unicode="&quot;" horiz-adv-x="431" d="M260 433L245 626V688H366V626L351 433H260ZM80 433L65 626V688H187V626L172 433H80Z" />
<glyph unicode="#" horiz-adv-x="748" d="M107 0L148 180H57V268H169L202 416H94V504H223L266 688H358L314 504H456L500 688H591L548 504H641V416H528L494 268H604V180H474L432 0H341L382 180H240L199 0H107ZM260 268H402L436 416H294L260 268Z" />
<glyph unicode="$" horiz-adv-x="538" d="M257 67Q230 68 198 70T134 75T74 83V186Q79 186 95 185T135 182T188 179T248 177Q297 177 318 182T344 199T350 231Q350 253 347 262T332 275T297 282L178 298Q126 305 101 326T67 380T58 458Q58 506 71 536T113 584T181
609T275 618Q314 618 343 617T398 612T451 602V499Q425 502 397 504T341 508T291 509Q262 509 242 508T210 501T193 486T187 458Q187 438 190 428T203 414T236 408L368 392Q406 387 430 374T467 328T480 235Q480 168 460 132T392 82T257 67ZM223 -8V696H319V-8H223Z"
/>
<glyph unicode="%" horiz-adv-x="860" d="M161 0L610 688H698L249 0H161ZM199 311Q147 311 117 319T73 349T56 408T52 503Q52 560 55 597T73 656T117 687T199 696Q252 696 282 687T325 657T342 598T346 503Q346 446 342 409T325 350T282 320T199 311ZM199 378Q223
378 236 380T255 394T262 431T263 503Q263 549 262 574T255 611T236 625T199 628Q176 628 163 626T143 612T136 575T135 503Q135 457 136 432T143 395T162 381T199 378ZM661 -8Q609 -8 579 0T535 30T518 89T514 184Q514 241 517 278T535 337T579 368T661 377Q714
377 743 368T787 338T804 279T808 184Q808 127 805 90T787 31T744 1T661 -8ZM661 59Q685 59 698 61T717 75T724 112T725 184Q725 230 724 255T717 292T698 306T661 309Q637 309 624 307T606 293T599 256T597 184Q597 138 598 113T605 76T624 62T661 59Z" />
<glyph unicode="&amp;" horiz-adv-x="737" d="M362 -8Q283 -8 228 1T139 28T87 70T63 123T56 184Q56 240 70 272T113 322T181 349V353Q121 367 92 403T62 515Q62 552 74 585T119 642T210 681T361 696Q396 696 437 693T520 686T595 674V573Q564 577 527 580T454
585T389 587Q326 587 288 583T230 568T204 539T198 492Q198 471 201 454T215 426T248 408T308 401H380V294H308Q270 294 247 289T212 273T196 243T192 197Q192 155 208 134T262 107T362 100Q387 100 410 101T456 103T501 107L467 52V401H708V294H599V13Q565 7 524
3T440 -5T362 -8Z" />
<glyph unicode="&apos;" horiz-adv-x="252" d="M80 433L65 626V688H187V626L172 433H80Z" />
<glyph unicode="(" horiz-adv-x="339" d="M228 -150Q193 -110 167 -78T122 -12T92 63T75 161T70 297Q70 376 75 432T91 531T121 607T166 673T228 743H319Q294 711 275 684T241 624T216 550T200 446T195 297Q195 209 200 148T215 43T240 -31T274 -90T319 -150H228Z" />
<glyph unicode=")" horiz-adv-x="339" d="M20 -150Q45 -118 64 -91T98 -32T123 43T139 147T144 297Q144 384 139 445T124 549T99 624T65 683T20 743H111Q146 705 172 673T217 607T247 531T264 433T269 297Q269 218 264 162T248 64T218 -11T173 -77T111 -150H20Z" />
<glyph unicode="*" horiz-adv-x="447" d="M187 320L196 455L81 378L44 444L168 503L44 564L81 630L196 552L187 688H261L250 553L366 630L402 564L279 503L402 444L366 378L251 455L261 320H187Z" />
<glyph unicode="+" horiz-adv-x="540" d="M219 52V202H70V303H219V452H320V303H470V202H320V52H219Z" />
<glyph unicode="," horiz-adv-x="273" d="M52 -139V-82Q79 -82 93 -77T113 -58T119 -17V0H64V131H209V37Q209 -17 204 -51T183 -105T136 -131T52 -139Z" />
<glyph unicode="-" horiz-adv-x="369" d="M53 228V341H316V228H53Z" />
<glyph unicode="." horiz-adv-x="273" d="M64 0V131H209V0H64Z" />
<glyph unicode="/" horiz-adv-x="392" d="M-8 -55L282 743H398L107 -55H-8Z" />
<glyph unicode="0" horiz-adv-x="666" d="M332 -8Q255 -8 205 1T126 34T83 97T66 198T62 344Q62 429 65 490T83 591T126 654T205 686T332 696Q410 696 460 687T539 654T582 591T599 490T603 344Q603 259 600 198T582 97T539 34T460 2T332 -8ZM332 108Q370 108
394 111T431 125T451 161T460 230T462 344Q462 413 460 457T452 527T432 563T394 577T333 580Q296 580 272 577T234 563T214 527T205 458T203 344Q203 275 205 231T213 161T233 125T271 111T332 108Z" />
<glyph unicode="1" horiz-adv-x="389" d="M158 0V536L24 478V597L203 688H300V0H158Z" />
<glyph unicode="2" horiz-adv-x="611" d="M59 0V90Q59 148 62 188T76 257T111 305T177 342L335 406Q367 420 383 430T404 457T409 500Q409 536 397 553T354 575T267 580Q245 580 212 578T143 573T73 566V675Q104 681 145 685T229 693T310 696Q360 696 403 690T480
665T532 609T551 509Q551 447 538 409T497 348T430 309L250 237Q226 228 215 218T200 191T196 146V117H551V0H59Z" />
<glyph unicode="3" horiz-adv-x="607" d="M269 -8Q236 -8 197 -6T120 2T54 12V120Q89 117 126 114T198 110T257 108Q307 108 339 112T385 136T400 197Q400 234 390 254T357 282T293 290H173V406H293Q326 406 348 412T382 437T393 492Q393 534 381 552T336 575T247
580Q218 580 184 578T116 574T58 567V676Q86 682 123 686T199 693T270 696Q347 696 398 684T480 649T524 593T537 515Q537 440 507 403T419 353V349Q458 341 486 324T529 274T544 184Q544 142 533 107T492 46T409 6T269 -8Z" />
<glyph unicode="4" horiz-adv-x="647" d="M378 0V145H38V248L291 688H445L191 261H380L418 450H519V261H611V145H519V0H378Z" />
<glyph unicode="5" horiz-adv-x="623" d="M291 -8Q258 -8 219 -6T141 1T73 12V120Q110 117 147 114T218 110T276 108Q321 108 349 112T392 128T414 159T421 210Q421 243 414 263T390 293T344 306T270 310Q245 310 212 309T145 305T81 298V688H513V571H208V417Q226
419 250 421T299 424T343 425Q411 425 454 412T521 373T554 309T564 222Q564 161 553 117T512 46T428 5T291 -8Z" />
<glyph unicode="6" horiz-adv-x="664" d="M344 -8Q275 -8 227 -2T146 24T94 81Q83 106 76 142T65 227T62 340Q62 395 64 439T74 519T92 581Q110 626 142 650T225 685T351 696Q379 696 416 693T493 686T568 675V566Q533 570 498 573T431 578T379 580Q321 580 286
573T234 544T211 483T205 377H211Q220 387 238 398T289 418T379 426Q437 426 480 418T551 389T592 328T606 226Q606 160 596 115T557 43T477 4T344 -8ZM336 107Q376 107 402 110T442 123T462 153T468 207Q468 242 463 263T443 295T403 308T336 311Q292 311 267
306T229 291T212 264T208 224Q208 182 214 159T235 124T274 110T336 107Z" />
<glyph unicode="7" horiz-adv-x="569" d="M114 0L377 571H36V688H529V582L271 0H114Z" />
<glyph unicode="8" horiz-adv-x="682" d="M341 -8Q254 -8 199 5T114 43T73 103T62 184Q62 242 76 274T119 323T187 349V353Q126 366 97 403T68 515Q68 559 81 593T124 650T208 684T341 696Q420 696 473 685T556 650T600 593T614 515Q614 440 585 403T495 353V349Q536
340 563 324T605 275T620 184Q620 139 608 104T567 43T482 5T341 -8ZM341 107Q394 107 423 112T464 136T476 197Q476 229 470 248T450 276T409 289T341 293Q299 293 273 290T232 277T212 248T206 197Q206 156 217 137T258 112T341 107ZM341 403Q395 403 422 409T460
435T470 492Q470 531 461 550T424 575T341 582Q286 582 258 576T221 550T212 492Q212 454 221 435T259 410T341 403Z" />
<glyph unicode="9" horiz-adv-x="664" d="M313 -8Q285 -8 248 -5T171 2T97 13V122Q132 118 167 115T233 110T285 108Q344 108 378 115T430 144T453 205T459 311H453Q444 301 427 290T375 270T285 262Q227 262 184 270T113 299T72 360T58 462Q58 528 68 573T107
645T187 684T320 696Q395 696 446 689T530 659T578 588Q591 548 596 490T602 348Q602 287 599 239T587 154T564 89Q545 53 513 32T431 1T313 -8ZM328 377Q372 377 398 382T436 397T452 424T456 464Q456 506 450 529T429 564T390 578T328 581Q288 581 262 578T222
565T202 535T196 481Q196 446 202 425T222 393T261 380T328 377Z" />
<glyph unicode=":" horiz-adv-x="273" d="M64 379V510H209V379H64ZM64 0V131H209V0H64Z" />
<glyph unicode=";" horiz-adv-x="273" d="M52 -139V-82Q79 -82 93 -77T113 -58T119 -17V0H64V131H209V37Q209 -17 204 -51T183 -105T136 -131T52 -139ZM64 379V510H209V379H64Z" />
<glyph unicode="&lt;" horiz-adv-x="541" d="M471 45L71 199V306L471 461V357L184 253L471 148V45Z" />
<glyph unicode="=" horiz-adv-x="540" d="M70 303V404H470V303H70ZM70 101V202H470V101H70Z" />
<glyph unicode="&gt;" horiz-adv-x="541" d="M70 45V148L357 253L70 357V461L470 306V199L70 45Z" />
<glyph unicode="?" horiz-adv-x="511" d="M143 222V294Q143 332 150 354T173 388T210 407L249 420Q275 430 287 437T304 461T309 508Q309 543 298 558T262 577T193 580Q178 580 158 579T117 577T75 573T37 569V679Q66 684 102 688T174 694T242 696Q297 696 336
686T401 654T438 596T450 508Q450 473 445 447T429 403T403 372T367 353L323 339Q303 332 291 327T273 315T265 296T263 262V222H143ZM131 0V131H276V0H131Z" />
<glyph unicode="@" horiz-adv-x="936" d="M468 -108Q354 -108 281 -100T167 -68T106 0T82 117T77 294Q77 399 81 471T105 587T166 655T281 687T468 696Q582 696 654 688T769 657T830 589T854 472T859 294Q859 213 852 168T830 104T788 80T725 75H554L549 129H542Q527
102 505 89T459 72T407 68Q361 68 332 81T288 123T274 199Q274 251 285 279T325 320T409 332Q423 332 447 332T498 330T547 328V347Q547 375 543 390T528 413T494 423T431 425Q420 425 403 425T366 423T329 421T300 419V505Q341 511 385 514T470 518Q537 518 575
508T633 476T659 421T665 342V131H736Q753 131 765 134T784 151T794 200T797 294Q797 383 795 443T781 541T745 599T675 629Q641 636 590 637T467 639Q406 639 361 638T281 632Q229 625 200 606T157 550T141 451T137 294Q137 189 141 123T163 21T220 -30T332 -49Q359
-50 393 -50T468 -51Q486 -51 515 -51T576 -50T632 -48T664 -47V-104Q646 -105 625 -105T581 -106T529 -107T468 -108ZM459 154Q497 154 515 161T540 187T547 239V263H441Q418 263 406 260T390 245T386 209Q386 187 390 175T411 158T459 154Z" />
<glyph unicode="A" horiz-adv-x="686" d="M15 0L248 688H438L671 0H526L475 152H206L157 0H15ZM242 267H438L343 559H337L242 267Z" />
<glyph unicode="B" horiz-adv-x="675" d="M82 0V688H418Q485 688 527 669T590 611T611 515Q611 468 598 435T559 382T492 353V349Q538 340 565 320T605 266T617 182Q617 141 607 108T575 50T514 13T419 0H82ZM224 114H372Q412 114 435 121T466 148T475 203Q475
237 466 256T435 284T372 292H224V114ZM224 404H367Q405 404 427 412T459 438T469 487Q469 522 461 540T431 566T367 573H224V404Z" />
<glyph unicode="C" horiz-adv-x="571" d="M349 -8Q273 -8 222 2T139 36T91 100T68 200T62 344Q62 428 68 488T90 588T139 652T222 686T349 696Q378 696 409 694T470 688T519 679V570Q492 573 467 575T421 579T384 580Q333 580 300 576T248 560T219 522T207 453T204
344Q204 279 207 236T219 167T247 129T300 112T384 108Q417 108 456 111T523 118V7Q501 3 471 0T410 -6T349 -8Z" />
<glyph unicode="D" horiz-adv-x="683" d="M82 0V688H316Q405 688 461 679T550 648T597 586T616 487T620 344Q620 260 616 201T598 103T551 41T462 9T316 0H82ZM224 116H308Q357 116 388 118T438 131T465 165T475 233T478 344Q478 411 476 454T465 522T438 556T388
569T308 572H224V116Z" />
<glyph unicode="E" horiz-adv-x="607" d="M82 0V688H552V572H224V405H505V289H224V116H552V0H82Z" />
<glyph unicode="F" horiz-adv-x="569" d="M82 0V688H532V572H224V386H495V270H224V0H82Z" />
<glyph unicode="G" horiz-adv-x="669" d="M364 -8Q289 -8 237 2T150 35T96 99T70 199T62 344Q62 428 69 488T96 589T150 652T237 686T364 696Q397 696 437 693T518 686T592 674V565Q557 570 524 573T464 578T419 580Q362 580 324 578T262 564T226 528T208 459T203
344Q203 282 206 240T219 171T247 130T295 110T369 105Q385 105 402 105T435 107T461 109V279H346V391H595V14Q561 7 519 3T437 -5T364 -8Z" />
<glyph unicode="H" horiz-adv-x="722" d="M82 0V688H224V407H498V688H640V0H498V285H224V0H82Z" />
<glyph unicode="I" horiz-adv-x="306" d="M82 0V688H224V0H82Z" />
<glyph unicode="J" horiz-adv-x="389" d="M27 0V109Q80 110 109 114T150 133T166 177T169 260V688H311V298Q311 212 307 157T289 69T245 23T162 4T27 0Z" />
<glyph unicode="K" horiz-adv-x="678" d="M82 0V688H224V408H297L506 688H661L411 359L664 0H501L297 292H224V0H82Z" />
<glyph unicode="L" horiz-adv-x="538" d="M82 0V688H224V120H512V0H82Z" />
<glyph unicode="M" horiz-adv-x="899" d="M82 0V688H277L447 234H453L622 688H816V0H679V479H674L496 0H398L220 479H215V0H82Z" />
<glyph unicode="N" horiz-adv-x="723" d="M82 0V688H229L500 264H505V688H641V0H506L223 447H218V0H82Z" />
<glyph unicode="O" horiz-adv-x="707" d="M353 -8Q269 -8 215 2T129 35T84 99T66 200T62 344Q62 428 66 488T84 588T129 652T214 686T353 696Q437 696 491 686T577 653T622 589T641 488T645 344Q645 260 641 200T623 100T577 36T492 2T353 -8ZM353 108Q397 108
424 111T468 125T491 161T501 230T503 344Q503 414 501 458T492 527T468 563T425 577T353 580Q310 580 283 577T239 563T216 527T206 458T204 344Q204 274 206 230T215 161T239 125T282 111T353 108Z" />
<glyph unicode="P" horiz-adv-x="647" d="M82 0V688H401Q465 688 505 672T568 627T598 555T607 460Q607 411 600 370T570 297T507 249T397 232H224V0H82ZM224 348H341Q384 348 409 352T446 369T461 403T465 460Q465 495 462 517T447 551T411 568T345 573H224V348Z" />
<glyph unicode="Q" horiz-adv-x="707" d="M515 -115L288 218H436L672 -112V-115H515ZM353 -8Q269 -8 215 2T129 35T84 99T66 200T62 344Q62 428 66 488T84 588T129 652T214 686T353 696Q437 696 491 686T577 653T622 589T641 488T645 344Q645 260 641 200T623
100T577 36T492 2T353 -8ZM353 108Q397 108 424 111T468 125T491 161T501 230T503 344Q503 414 501 458T492 527T468 563T425 577T353 580Q310 580 283 577T239 563T216 527T206 458T204 344Q204 274 206 230T215 161T239 125T282 111T353 108Z" />
<glyph unicode="R" horiz-adv-x="676" d="M82 0V688H411Q478 688 518 673T580 630T608 561T616 470Q616 435 610 395T584 321T519 271L629 0H479L375 276L410 257Q403 254 394 253T372 252H224V0H82ZM224 367H354Q396 367 420 372T456 388T471 419T474 470Q474
501 471 521T457 552T422 568T355 573H224V367Z" />
<glyph unicode="S" horiz-adv-x="620" d="M324 -8Q286 -8 241 -6T152 -1T73 7V120Q110 117 148 114T222 110T282 108Q333 108 361 112T403 126Q414 134 418 143T423 166T424 197Q424 220 422 235T413 258T394 271T359 277L205 296Q159 302 130 317T83 357T60 416T53
493Q53 561 72 601T125 662T207 689T309 696Q349 696 391 694T470 687T532 677V567Q507 571 474 574T405 578T337 580Q290 580 263 577T220 565Q203 555 200 539T196 499Q196 469 200 454T219 432T266 422L420 404Q448 401 472 394T515 372T546 330Q553 316 557
298T563 256T566 205Q566 147 555 108T522 46T471 11T403 -4T324 -8Z" />
<glyph unicode="T" horiz-adv-x="582" d="M220 0V568H21V688H561V568H362V0H220Z" />
<glyph unicode="U" horiz-adv-x="698" d="M349 -8Q276 -8 227 1T148 30T103 86T82 176T76 307V688H218V271Q218 218 221 186T236 136T275 114T349 108Q396 108 422 113T461 136T476 185T479 271V688H621V307Q621 231 616 177T595 86T550 30T471 1T349 -8Z" />
<glyph unicode="V" horiz-adv-x="663" d="M237 0L17 688H163L331 151H336L502 688H645L425 0H237Z" />
<glyph unicode="W" horiz-adv-x="989" d="M189 0L23 688H165L286 165H291L424 688H572L707 165H712L825 688H967L800 0H623L497 481H492L366 0H189Z" />
<glyph unicode="X" horiz-adv-x="679" d="M18 0L252 345L22 688H186L338 460H346L499 688H658L427 348L661 0H497L341 236H332L176 0H18Z" />
<glyph unicode="Y" horiz-adv-x="624" d="M240 0V244L4 688H153L311 382H318L475 688H619L382 244V0H240Z" />
<glyph unicode="Z" horiz-adv-x="611" d="M47 0V111L384 572H58V688H563V581L222 115H566V0H47Z" />
<glyph unicode="[" horiz-adv-x="366" d="M83 -150V743H322V656L203 652V-59L322 -63V-150H83Z" />
<glyph unicode="\" horiz-adv-x="392" d="M283 -55L-8 743H108L398 -55H283Z" />
<glyph unicode="]" horiz-adv-x="366" d="M43 -150V-63L162 -59V652L43 656V743H282V-150H43Z" />
<glyph unicode="^" horiz-adv-x="442" d="M28 444L170 749H272L413 444H314L221 659L127 444H28Z" />
<glyph unicode="_" horiz-adv-x="378" d="M0 -181V-80H378V-181H0Z" />
<glyph unicode="`" horiz-adv-x="228" d="M132 582L0 721V726H133L228 587V582H132Z" />
<glyph unicode="a" horiz-adv-x="565" d="M196 -8Q147 -8 113 6T62 54T44 143Q44 202 58 236T107 286T204 302Q214 302 232 302T273 301T319 300T361 298V318Q361 351 356 370T337 398T296 409T226 411Q204 411 175 410T119 407T76 403V503Q119 510 169 514T270
518Q330 518 370 511T435 487T472 447T489 389T493 312V0H370L366 62H358Q341 31 314 16T256 -3T196 -8ZM259 94Q281 94 297 97T326 107T346 127Q353 140 357 159T361 205V220H240Q212 220 197 216T177 198T172 156Q172 130 178 117T203 99T259 94Z" />
<glyph unicode="b" horiz-adv-x="585" d="M357 -8Q328 -8 299 -3T246 18T206 63H199L195 0H71V743H203V454H210Q226 480 248 493T299 512T361 518Q408 518 440 505T493 462T522 382T532 255Q532 178 523 128T492 48T438 5T357 -8ZM301 106Q334 106 354 110T383
129T396 174T399 255Q399 306 396 335T384 379T354 398T301 403Q269 403 250 397T221 373Q210 355 207 326T203 255Q203 214 206 185T221 136Q231 121 250 114T301 106Z" />
<glyph unicode="c" horiz-adv-x="462" d="M268 -8Q207 -8 168 3T105 35T70 87T56 161T53 256Q53 306 56 347T72 421T107 474T169 507T267 518Q305 518 345 514T413 503V403Q392 407 360 409T301 411Q262 411 240 405T206 383T190 335T186 255Q186 205 190 174T206
127T241 105T303 99Q327 99 357 101T417 106V7Q389 0 348 -4T268 -8Z" />
<glyph unicode="d" horiz-adv-x="585" d="M227 -8Q180 -8 147 4T93 46T63 127T53 254Q53 330 62 381T91 462T144 505T224 518Q257 518 285 513T336 494T374 454H382V743H514V0H390L386 63H379Q364 33 340 18T286 -2T227 -8ZM284 106Q321 106 340 115T369 146Q377
166 379 193T382 255Q382 291 380 317T369 361Q360 384 341 393T284 403Q251 403 231 399T202 380T189 336T186 255Q186 204 189 174T201 130T231 111T284 106Z" />
<glyph unicode="e" horiz-adv-x="557" d="M298 -8Q230 -8 185 1T114 29T74 79T57 153T53 254Q53 322 60 372T89 454T159 502T286 518Q350 518 390 508T453 478T487 427T501 352T504 254V215H185Q185 177 188 154T205 118T248 102T329 98Q350 98 376 99T431 102T484
106V8Q462 3 431 0T365 -6T298 -8ZM378 281V297Q378 336 374 359T359 395T330 410T284 414Q251 414 232 410T203 393T189 357T185 297H396L378 281Z" />
<glyph unicode="f" horiz-adv-x="404" d="M120 0V403H22V510H120V557Q120 611 127 645T151 699T198 728T272 739T379 742V646Q337 646 312 644T275 635T258 615T253 578V510H379V403H253V0H120Z" />
<glyph unicode="g" horiz-adv-x="585" d="M267 -206Q235 -206 202 -205T139 -201T91 -194V-96Q111 -97 136 -98T187 -99T235 -99Q287 -99 316 -94T359 -76T378 -36T382 34V64H375Q361 38 339 24T289 4T228 -1Q180 -1 147 11T92 52T62 131T53 256Q53 332 62 382T93
462T147 505T228 518Q257 518 286 513T339 492T379 446H386L390 510H514V60Q514 -9 507 -59T476 -142T403 -190T267 -206ZM284 111Q317 111 336 119T366 144Q376 162 379 190T382 257Q382 295 379 323T366 369Q356 388 337 396T284 404Q251 404 231 400T202 381T189
337T186 257Q186 207 189 179T201 136T231 116T284 111Z" />
<glyph unicode="h" horiz-adv-x="593" d="M71 0V743H203V450H211Q224 474 245 489T295 510T361 517Q413 517 445 505T494 467T516 405T522 319V0H390V270Q390 316 387 343T375 383T348 399T300 403Q268 403 249 396T220 372T207 329T203 264V0H71Z" />
<glyph unicode="i" horiz-adv-x="275" d="M69 625V743H206V625H69ZM71 0V510H204V0H71Z" />
<glyph unicode="j" horiz-adv-x="275" d="M69 625V743H206V625H69ZM-17 -200V-102Q24 -102 42 -97T66 -80T71 -48V510H204V-20Q204 -82 194 -118T160 -172T93 -194T-17 -200Z" />
<glyph unicode="k" horiz-adv-x="558" d="M71 0V743H203V309H245L392 510H536L352 265L539 0H390L245 202H203V0H71Z" />
<glyph unicode="l" horiz-adv-x="275" d="M71 0V743H204V0H71Z" />
<glyph unicode="m" horiz-adv-x="872" d="M71 0V510H195L199 446H206Q219 470 239 486T288 510T353 518Q414 518 445 501T490 446H498Q511 470 532 486T583 510T649 518Q714 518 746 496T789 429T800 319V0H668V270Q668 316 665 343T655 383T631 399T588 403Q559
403 542 396T516 372T505 330T502 264V0H369V270Q369 316 367 343T356 383T332 399T290 403Q261 403 244 396T218 372T206 329T203 264V0H71Z" />
<glyph unicode="n" horiz-adv-x="593" d="M71 0V510H195L199 446H207Q221 471 241 487T292 510T362 518Q414 518 445 505T494 467T516 405T522 319V0H390V270Q390 316 387 343T375 383T348 399T300 403Q268 403 249 396T220 372T207 329T203 264V0H71Z" />
<glyph unicode="o" horiz-adv-x="574" d="M287 -8Q221 -8 177 0T108 26T72 74T57 149T53 256Q53 318 56 362T71 437T108 485T177 510T287 518Q353 518 396 511T465 485T502 437T517 363T521 256Q521 194 518 149T503 74T466 26T397 0T287 -8ZM287 99Q324 99 345
104T375 124T386 172T388 256Q388 308 386 339T376 386T346 406T287 411Q249 411 228 407T198 387T188 340T186 256Q186 204 187 172T198 125T228 104T287 99Z" />
<glyph unicode="p" horiz-adv-x="585" d="M71 -199V510H195L199 446H206Q222 476 246 491T299 512T357 518Q404 518 437 506T492 464T522 383T532 256Q532 180 523 129T493 48T441 5T361 -8Q328 -8 300 -3T249 16T211 56H203V-199H71ZM301 107Q334 107 354 111T383
130T396 174T399 255Q399 306 396 336T384 380T354 399T301 404Q265 404 246 395T217 365Q208 347 206 320T203 255Q203 217 205 191T216 146Q226 125 246 116T301 107Z" />
<glyph unicode="q" horiz-adv-x="586" d="M382 -199V56H375Q359 30 337 17T286 -2T224 -8Q177 -8 145 4T92 47T62 127T53 254Q53 331 62 382T93 462T147 505T227 518Q258 518 287 513T340 492T379 446H386L390 510H514V-199H382ZM284 107Q321 107 341 117T370
148Q377 166 379 192T382 255Q382 295 379 324T365 372Q354 389 336 396T284 404Q251 404 231 400T202 381T189 336T186 255Q186 204 189 175T201 131T231 112T284 107Z" />
<glyph unicode="r" horiz-adv-x="395" d="M71 0V510H195L199 422H207Q220 460 242 481T297 510T370 518V392Q305 392 269 374T218 315T203 204V0H71Z" />
<glyph unicode="s" horiz-adv-x="499" d="M258 -8Q227 -8 192 -6T122 -1T60 6V106Q75 105 95 104T140 101T187 99T230 98Q276 98 296 102T323 118T329 149Q329 169 325 178T310 191T274 197L155 212Q108 218 85 237T53 288T44 364Q44 416 59 446T102 492T168 513T252
518Q282 518 314 516T375 511T425 502V403Q402 406 374 407T319 410T271 412Q233 412 211 410T179 397T170 364Q170 346 173 337T186 324T218 317L347 301Q382 297 406 285T441 243T453 152Q453 99 440 68T401 20T339 -2T258 -8Z" />
<glyph unicode="t" horiz-adv-x="390" d="M119 0V403H21V510H119V658H252V510H368V403H252V0H119Z" />
<glyph unicode="u" horiz-adv-x="593" d="M232 -8Q180 -8 148 5T100 43T77 105T71 191V510H203V240Q203 194 206 167T218 127T245 111T293 107Q325 107 345 114T374 138T387 181T390 246V510H522V0H399L395 64H386Q374 40 353 24T301 0T232 -8Z" />
<glyph unicode="v" horiz-adv-x="541" d="M183 0L18 510H155L268 124H277L388 510H523L359 0H183Z" />
<glyph unicode="w" horiz-adv-x="832" d="M166 0L23 510H157L247 143H256L357 510H479L580 143H589L678 510H809L665 0H505L420 300H411L327 0H166Z" />
<glyph unicode="x" horiz-adv-x="558" d="M19 0L197 259L25 510H172L279 352H285L391 510H531L360 260L539 0H391L278 167H271L159 0H19Z" />
<glyph unicode="y" horiz-adv-x="593" d="M280 -206Q250 -206 218 -205T157 -201T106 -195V-97Q142 -98 167 -98T212 -99T248 -99Q299 -99 327 -94T369 -75T386 -36T390 31V65H382Q371 43 351 28T301 6T232 -2Q180 -2 148 11T100 49T77 110T71 196V510H203V245Q203
198 206 171T218 132T245 116T293 112Q325 112 345 119T374 143T387 186T390 251V510H522V58Q522 -11 515 -61T485 -143T412 -190T280 -206Z" />
<glyph unicode="z" horiz-adv-x="521" d="M48 0V99L302 403H60V510H470V411L217 107H472V0H48Z" />
<glyph unicode="{" horiz-adv-x="351" d="M240 -150Q219 -140 197 -123T157 -82T127 -29T115 32V148Q115 174 109 200T84 246T24 266V327Q64 328 83 346T109 392T115 445V560Q115 593 126 621T156 674T197 715T240 743H331Q315 730 299 711T268 669T245 620T236
568V446Q236 389 211 351T124 300V293Q185 281 210 243T236 146V25Q236 -1 244 -27T267 -76T298 -118T331 -150H240Z" />
<glyph unicode="|" horiz-adv-x="290" d="M87 -161V743H203V-161H87Z" />
<glyph unicode="}" horiz-adv-x="351" d="M19 -150Q35 -137 51 -118T82 -76T105 -27T114 25V146Q114 204 140 242T226 293V300Q166 312 140 350T114 446V568Q114 594 106 620T83 669T52 711T19 743H110Q132 733 153 716T193 674T223 622T235 560V445Q235 419 241
392T266 347T326 327V266Q285 265 266 246T241 201T235 148V32Q235 0 224 -29T194 -81T154 -122T110 -150H19Z" />
<glyph unicode="~" horiz-adv-x="497" d="M57 230Q57 274 61 303T84 348T144 364Q174 364 204 358T262 344Q284 338 305 333T342 328Q363 328 366 338T369 375H438Q438 332 434 303T411 258T352 242Q322 242 292 248T234 262Q212 268 191 272T154 277Q134 277
131 267T127 230H57Z" />
<glyph unicode="&#xa0;" horiz-adv-x="247" />
<glyph unicode="&#xa1;" horiz-adv-x="290" d="M68 -178V-119Q68 -102 69 -70T73 6T80 97T88 195T95 288H195Q199 244 203 195T210 98T217 6T221 -69T223 -119V-178H68ZM73 379V510H218V379H73Z" />
<glyph unicode="&#xa2;" horiz-adv-x="468" d="M260 67Q194 67 153 86T91 140T63 227T55 342Q55 393 60 435T79 511T115 569T174 605T260 618Q287 618 313 617T364 613T415 602V498Q394 502 364 504T307 507Q269 507 247 501T213 477T197 427T193 342Q193 289
197 257T214 207T248 184T309 178Q334 178 365 180T419 187V83Q399 77 378 74T330 69T260 67ZM229 -8V696H326V-8H229Z" />
<glyph unicode="&#xa3;" horiz-adv-x="599" d="M47 0V116H121V298H47V410H122V420Q122 497 133 550T174 635T255 681T387 696Q428 696 472 692T544 680V571Q523 574 500 576T457 579T425 580Q372 580 340 574T291 551T270 503T264 420V410H469V298H264V116H556V0H47Z" />
<glyph unicode="&#xa4;" horiz-adv-x="679" d="M124 -2L53 70L129 146Q114 178 110 227T105 345Q105 414 109 462T128 543L53 618L124 690L209 605Q233 613 265 615T339 618Q381 618 413 615T470 605L555 691L627 619L551 543Q566 511 570 463T574 345Q574 276
570 227T550 146L627 69L555 -3L469 83Q445 77 413 74T339 70Q298 70 266 73T209 83L124 -2ZM339 177Q377 177 398 182T428 204T438 255T440 345Q440 402 439 435T428 484T398 506T339 512Q302 512 281 507T251 485T240 435T238 345Q238 289 240 255T250 205T280
183T339 177Z" />
<glyph unicode="&#xa5;" horiz-adv-x="628" d="M242 0V218H53V295H224L23 688H170L312 378H319L461 688H603L402 295H572V218H384V0H242ZM53 377V454H572V377H53Z" />
<glyph unicode="&#xa6;" horiz-adv-x="290" d="M87 390V743H203V390H87ZM87 -161V192H203V-161H87Z" />
<glyph unicode="&#xa7;" horiz-adv-x="692" d="M328 -171Q287 -171 250 -169T184 -163T138 -156V-51Q152 -52 173 -53T222 -56T277 -57Q338 -57 369 -54T411 -40T422 -6Q422 14 419 24T405 40T373 52L174 109Q143 119 119 129T79 157T55 202T47 274Q47 308 51
337T65 388T96 426T148 447Q140 465 138 487T136 533Q136 584 152 615T199 664T271 689T364 696Q406 696 443 694T508 689T553 681V576Q531 578 492 579T414 581Q354 581 323 578T281 565T270 531Q270 510 273 500T287 484T320 472L518 414Q549 404 572 393T612
366T636 321T644 249Q644 215 640 187T626 135T595 97T543 76Q551 59 553 37T555 -9Q555 -59 539 -91T492 -140T421 -164T328 -171ZM175 296Q175 270 179 256T195 234T228 221L430 162Q442 159 455 156T478 152Q497 152 507 170T517 227Q517 254 513 268T498 289T466
302L262 360Q249 363 237 367T215 371Q195 371 185 353T175 296Z" />
<glyph unicode="&#xa8;" horiz-adv-x="320" d="M0 605V705H113V605H0ZM207 605V705H320V605H207Z" />
<glyph unicode="&#xa9;" horiz-adv-x="742" d="M370 -8Q286 -8 232 0T147 30T101 90T84 192T80 344Q80 434 83 496T101 597T146 658T232 687T370 696Q455 696 509 688T595 658T641 598T658 496T662 344Q662 254 659 192T641 91T596 30T510 1T370 -8ZM393 153Q343
153 312 162T266 194T245 252T239 342Q239 396 244 432T265 490T312 521T393 531Q418 531 444 529T485 522V460Q466 462 446 463T412 465Q379 465 361 462T334 446T323 410T321 342Q321 300 323 275T334 238T361 223T412 219Q430 219 451 220T487 224V160Q470 157
444 155T393 153ZM370 47Q439 47 483 50T552 68T588 115T602 202T605 344Q605 430 603 485T589 572T553 618T484 637T370 641Q302 641 258 637T189 619T153 573T139 486T136 344Q136 258 138 203T152 115T189 69T258 51T370 47Z" />
<glyph unicode="&#xaa;" horiz-adv-x="414" d="M146 313Q109 313 85 324T50 360T38 424Q38 466 47 491T81 527T151 538Q163 538 182 538T224 536T265 534V550Q265 581 259 594T231 612T164 616Q153 616 137 615T100 613T59 609V684Q90 689 128 692T200 696Q256
696 289 687T338 659T359 612T364 545V317H271L266 359H261Q246 339 227 329T187 316T146 313ZM193 386Q210 386 222 388T242 395T257 409Q261 418 263 431T265 465V479H180Q150 479 141 470T132 433Q132 404 142 395T193 386Z" />
<glyph unicode="&#xab;" horiz-adv-x="493" d="M163 99L31 304L163 510H250L143 304L250 99H163ZM347 99L215 304L347 510H435L327 304L435 99H347Z" />
<glyph unicode="&#xac;" horiz-adv-x="539" d="M369 53V203H70V305H469V53H369Z" />
<glyph unicode="&#xad;" horiz-adv-x="369" d="M53 228V341H316V228H53Z" />
<glyph unicode="&#xae;" horiz-adv-x="742" d="M370 -8Q286 -8 232 0T147 30T101 90T84 192T80 344Q80 434 83 496T101 597T146 658T232 687T370 696Q455 696 509 688T595 658T641 598T658 496T662 344Q662 254 659 192T641 91T596 30T510 1T370 -8ZM370 47Q439
47 483 50T552 68T588 115T602 202T605 344Q605 430 603 485T589 572T553 618T484 637T370 641Q302 641 258 637T189 619T153 573T139 486T136 344Q136 258 138 203T152 115T189 69T258 51T370 47ZM230 158V528H401Q455 528 480 514T512 473T519 411Q519 378 510
348T466 304L526 158H441L390 292H309V158H230ZM309 356H369Q403 356 417 361T435 378T439 410Q439 431 435 442T418 457T375 462H309V356Z" />
<glyph unicode="&#xaf;" horiz-adv-x="315" d="M0 605V688H315V605H0Z" />
<glyph unicode="&#xb0;" horiz-adv-x="394" d="M197 397Q146 397 117 404T75 430T59 476T55 546Q55 587 58 615T75 662T117 688T197 696Q248 696 277 688T319 662T335 616T339 546Q339 505 336 477T319 430T277 405T197 397ZM197 459Q226 459 238 465T253 490T256
546Q256 583 254 602T239 627T197 633Q167 633 155 627T140 602T137 546Q137 509 139 490T154 465T197 459Z" />
<glyph unicode="&#xb1;" horiz-adv-x="540" d="M219 185V335H70V436H219V585H320V436H470V335H320V185H219ZM70 0V101H470V0H70Z" />
<glyph unicode="&#xb2;" horiz-adv-x="353" d="M36 420V475Q36 514 39 539T55 580T98 609L191 645Q209 653 216 658T226 671T228 694Q228 714 222 723T201 734T157 736Q138 736 107 735T44 729V792Q70 797 108 800T179 803Q216 803 247 797T297 769T316 699Q316
666 309 645T285 611T243 587L141 547Q132 544 128 540T122 531T121 515V488H316V420H36Z" />
<glyph unicode="&#xb3;" horiz-adv-x="350" d="M156 416Q128 416 94 419T32 426V488Q62 486 94 484T146 482Q187 482 205 489T223 529Q223 560 211 569T166 579H98V644H167Q184 644 196 647T214 661T220 691Q220 712 213 721T189 733T141 736Q118 736 88 735T34
730V793Q60 798 94 800T156 803Q214 803 247 793T294 761T308 704Q308 662 291 642T241 614V612Q275 605 293 587T312 521Q312 487 299 464T253 428T156 416Z" />
<glyph unicode="&#xb4;" horiz-adv-x="228" d="M0 582V587L95 726H228V721L96 582H0Z" />
<glyph unicode="&#xb5;" horiz-adv-x="593" d="M71 -189V510H203V240Q203 194 206 167T218 127T245 111T293 107Q325 107 345 114T374 138T387 181T390 246V510H522V0H399L395 64H386Q374 41 354 25T305 1T234 -7Q207 -7 182 3T136 36T93 90L219 34H203V-189H71Z" />
<glyph unicode="&#xb6;" horiz-adv-x="620" d="M298 -144V222Q228 222 183 227T112 245T73 284T58 351T54 454Q54 515 57 556T73 624T111 664T183 683T298 688H388V-144H298ZM454 -144V688H542V-144H454Z" />
<glyph unicode="&#xb7;" horiz-adv-x="273" d="M64 234V365H209V234H64Z" />
<glyph unicode="&#xb8;" horiz-adv-x="164" d="M0 -190V-185L77 18H164V13L125 -190H0Z" />
<glyph unicode="&#xb9;" horiz-adv-x="229" d="M91 420V712L15 679V748L116 798H175V420H91Z" />
<glyph unicode="&#xba;" horiz-adv-x="430" d="M215 313Q156 313 121 323T70 355T49 414T44 504Q44 557 49 593T70 652T121 685T215 696Q275 696 309 686T360 653T381 594T386 504Q386 451 381 415T360 356T310 323T215 313ZM215 392Q242 392 256 396T277 411T284
444T286 504Q286 541 285 563T277 597T257 613T215 617Q188 617 174 613T153 598T146 564T144 504Q144 466 145 444T153 411T174 396T215 392Z" />
<glyph unicode="&#xbb;" horiz-adv-x="492" d="M57 99L165 304L57 510H145L277 304L145 99H57ZM242 99L350 304L242 510H330L462 304L330 99H242Z" />
<glyph unicode="&#xbc;" horiz-adv-x="687" d="M91 308V600L15 567V636L116 686H175V308H91ZM38 0L487 688H576L127 0H38ZM533 0V79H342V137L473 378H567L432 145H536L560 246H619V145H668V79H619V0H533Z" />
<glyph unicode="&#xbd;" horiz-adv-x="738" d="M91 308V600L15 567V636L116 686H175V308H91ZM38 0L487 688H576L127 0H38ZM421 0V55Q421 94 424 119T440 160T483 189L576 225Q594 233 601 238T611 251T613 274Q613 294 607 303T586 314T542 316Q523 316 492 315T429
309V372Q455 377 493 380T564 383Q601 383 632 377T682 349T701 279Q701 246 694 225T670 191T628 167L526 127Q517 124 513 120T507 111T506 95V68H701V0H421Z" />
<glyph unicode="&#xbe;" horiz-adv-x="807" d="M156 304Q128 304 94 307T32 314V376Q62 374 94 372T146 370Q187 370 205 377T223 417Q223 448 211 457T166 467H98V532H167Q184 532 196 536T214 550T220 579Q220 600 213 609T189 621T141 624Q118 624 88 623T34
618V681Q60 686 94 688T156 691Q214 691 247 681T294 649T308 592Q308 550 291 530T241 502V500Q275 493 293 475T312 409Q312 375 299 352T253 316T156 304ZM159 0L608 688H697L248 0H159ZM653 0V79H462V137L593 378H687L552 145H656L680 246H739V145H788V79H739V0H653Z"
/>
<glyph unicode="&#xbf;" horiz-adv-x="451" d="M264 -186Q207 -186 167 -176T103 -143T68 -84T56 2Q56 35 61 60T75 104T100 135T135 156L177 170Q200 177 213 182T232 194T241 214T243 248V288H363V216Q363 179 356 157T334 123T296 103L263 91Q235 82 221 74T202
50T197 2Q197 -33 208 -48T244 -67T313 -70Q328 -70 348 -69T389 -67T430 -63T469 -59V-169Q440 -174 404 -178T332 -184T264 -186ZM230 379V510H375V379H230Z" />
<glyph unicode="&#xc0;" horiz-adv-x="686" d="M15 0L248 688H438L671 0H526L475 152H206L157 0H15ZM242 267H438L343 559H337L242 267ZM304 760L172 899V904H305L400 766V760H304Z" />
<glyph unicode="&#xc1;" horiz-adv-x="686" d="M15 0L248 688H438L671 0H526L475 152H206L157 0H15ZM242 267H438L343 559H337L242 267ZM270 760V765L365 904H498V899L366 760H270Z" />
<glyph unicode="&#xc2;" horiz-adv-x="686" d="M15 0L248 688H438L671 0H526L475 152H206L157 0H15ZM242 267H438L343 559H337L242 267ZM182 760V767L278 904H406L503 767V760H415L342 845L269 760H182Z" />
<glyph unicode="&#xc3;" horiz-adv-x="686" d="M15 0L248 688H438L671 0H526L475 152H206L157 0H15ZM242 267H438L343 559H337L242 267ZM161 760Q161 804 165 833T188 877T248 893Q276 893 304 887T357 873Q377 867 395 863T429 858Q449 858 452 867T456 904H525Q525
862 521 832T498 787T439 771Q409 771 383 778T330 791Q310 797 291 801T258 806Q237 806 234 797T231 760H161Z" />
<glyph unicode="&#xc4;" horiz-adv-x="686" d="M15 0L248 688H438L671 0H526L475 152H206L157 0H15ZM242 267H438L343 559H337L242 267ZM183 783V883H296V783H183ZM390 783V883H503V783H390Z" />
<glyph unicode="&#xc5;" horiz-adv-x="683" d="M15 0L248 688H438L671 0H526L475 152H206L157 0H15ZM242 267H438L343 559H337L242 267ZM369 639Q320 639 291 645T249 666T233 702T229 754Q229 784 232 806T249 843T291 864T370 871Q420 871 449 864T491 843T508
807T512 754Q512 724 509 702T492 666T449 646T369 639ZM369 697Q404 697 418 702T435 719T438 754Q438 777 435 789T418 807T369 812Q337 812 323 807T306 790T303 754Q303 732 306 720T323 702T369 697Z" />
<glyph unicode="&#xc6;" horiz-adv-x="964" d="M-15 0L303 688H909V572H516L552 405H862V289H576L614 116H909V0H496L464 153H195L126 0H-15ZM245 268H441L381 562H376L245 268Z" />
<glyph unicode="&#xc7;" horiz-adv-x="571" d="M349 -8Q273 -8 222 2T139 36T91 100T68 200T62 344Q62 428 68 488T90 588T139 652T222 686T349 696Q378 696 409 694T470 688T519 679V570Q492 573 467 575T421 579T384 580Q333 580 300 576T248 560T219 522T207
453T204 344Q204 279 207 236T219 167T247 129T300 112T384 108Q417 108 456 111T523 118V7Q501 3 471 0T410 -6T349 -8ZM219 -190V-185L296 18H383V13L344 -190H219Z" />
<glyph unicode="&#xc8;" horiz-adv-x="607" d="M82 0V688H552V572H224V405H505V289H224V116H552V0H82ZM286 760L154 899V904H287L382 766V760H286Z" />
<glyph unicode="&#xc9;" horiz-adv-x="607" d="M82 0V688H552V572H224V405H505V289H224V116H552V0H82ZM251 760V765L346 904H479V899L347 760H251Z" />
<glyph unicode="&#xca;" horiz-adv-x="607" d="M82 0V688H552V572H224V405H505V289H224V116H552V0H82ZM164 760V767L260 904H388L485 767V760H397L324 845L251 760H164Z" />
<glyph unicode="&#xcb;" horiz-adv-x="607" d="M82 0V688H552V572H224V405H505V289H224V116H552V0H82ZM164 783V883H277V783H164ZM371 783V883H484V783H371Z" />
<glyph unicode="&#xcc;" horiz-adv-x="306" d="M82 0V688H224V0H82ZM115 760L-17 899V904H116L211 766V760H115Z" />
<glyph unicode="&#xcd;" horiz-adv-x="306" d="M82 0V688H224V0H82ZM80 760V765L175 904H308V899L176 760H80Z" />
<glyph unicode="&#xce;" horiz-adv-x="306" d="M82 0V688H224V0H82ZM-7 760V767L89 904H217L314 767V760H226L153 845L80 760H-7Z" />
<glyph unicode="&#xcf;" horiz-adv-x="306" d="M82 0V688H224V0H82ZM-7 783V883H106V783H-7ZM200 783V883H313V783H200Z" />
<glyph unicode="&#xd0;" horiz-adv-x="683" d="M82 0V296H16V400H82V688H316Q405 688 461 679T550 648T597 586T616 487T620 344Q620 260 616 201T598 103T551 41T462 9T316 0H82ZM224 116H308Q357 116 388 118T438 131T465 165T475 233T478 344Q478 411 476 454T465
521T438 556T388 569T308 572H224V400H314V296H224V116Z" />
<glyph unicode="&#xd1;" horiz-adv-x="723" d="M82 0V688H229L500 264H505V688H641V0H506L223 447H218V0H82ZM189 760Q189 804 193 833T216 877T276 893Q304 893 332 887T385 873Q405 867 423 863T457 858Q477 858 480 867T484 904H553Q553 862 549 832T526 787T467
771Q437 771 411 778T358 791Q338 797 319 801T286 806Q265 806 262 797T259 760H189Z" />
<glyph unicode="&#xd2;" horiz-adv-x="707" d="M353 -8Q269 -8 215 2T129 35T84 99T66 200T62 344Q62 428 66 488T84 588T129 652T214 686T353 696Q437 696 491 686T577 653T622 589T641 488T645 344Q645 260 641 200T623 100T577 36T492 2T353 -8ZM353 108Q397
108 424 111T468 125T491 161T501 230T503 344Q503 414 501 458T492 527T468 563T425 577T353 580Q310 580 283 577T239 563T216 527T206 458T204 344Q204 274 206 230T215 161T239 125T282 111T353 108ZM315 760L183 899V904H316L411 766V760H315Z" />
<glyph unicode="&#xd3;" horiz-adv-x="707" d="M353 -8Q269 -8 215 2T129 35T84 99T66 200T62 344Q62 428 66 488T84 588T129 652T214 686T353 696Q437 696 491 686T577 653T622 589T641 488T645 344Q645 260 641 200T623 100T577 36T492 2T353 -8ZM353 108Q397
108 424 111T468 125T491 161T501 230T503 344Q503 414 501 458T492 527T468 563T425 577T353 580Q310 580 283 577T239 563T216 527T206 458T204 344Q204 274 206 230T215 161T239 125T282 111T353 108ZM281 760V765L376 904H509V899L377 760H281Z" />
<glyph unicode="&#xd4;" horiz-adv-x="707" d="M353 -8Q269 -8 215 2T129 35T84 99T66 200T62 344Q62 428 66 488T84 588T129 652T214 686T353 696Q437 696 491 686T577 653T622 589T641 488T645 344Q645 260 641 200T623 100T577 36T492 2T353 -8ZM353 108Q397
108 424 111T468 125T491 161T501 230T503 344Q503 414 501 458T492 527T468 563T425 577T353 580Q310 580 283 577T239 563T216 527T206 458T204 344Q204 274 206 230T215 161T239 125T282 111T353 108ZM194 760V767L290 904H418L515 767V760H427L354 845L281
760H194Z" />
<glyph unicode="&#xd5;" horiz-adv-x="707" d="M353 -8Q269 -8 215 2T129 35T84 99T66 200T62 344Q62 428 66 488T84 588T129 652T214 686T353 696Q437 696 491 686T577 653T622 589T641 488T645 344Q645 260 641 200T623 100T577 36T492 2T353 -8ZM353 108Q397
108 424 111T468 125T491 161T501 230T503 344Q503 414 501 458T492 527T468 563T425 577T353 580Q310 580 283 577T239 563T216 527T206 458T204 344Q204 274 206 230T215 161T239 125T282 111T353 108ZM173 760Q173 804 177 833T200 877T260 893Q288 893 316
887T369 873Q389 867 407 863T441 858Q461 858 464 867T468 904H537Q537 862 533 832T510 787T451 771Q421 771 395 778T342 791Q322 797 303 801T270 806Q249 806 246 797T243 760H173Z" />
<glyph unicode="&#xd6;" horiz-adv-x="707" d="M353 -8Q269 -8 215 2T129 35T84 99T66 200T62 344Q62 428 66 488T84 588T129 652T214 686T353 696Q437 696 491 686T577 653T622 589T641 488T645 344Q645 260 641 200T623 100T577 36T492 2T353 -8ZM353 108Q397
108 424 111T468 125T491 161T501 230T503 344Q503 414 501 458T492 527T468 563T425 577T353 580Q310 580 283 577T239 563T216 527T206 458T204 344Q204 274 206 230T215 161T239 125T282 111T353 108ZM194 783V883H307V783H194ZM401 783V883H514V783H401Z" />
<glyph unicode="&#xd7;" horiz-adv-x="501" d="M139 69L68 142L178 252L67 363L139 435L250 324L362 436L433 364L322 252L433 141L361 69L250 181L139 69Z" />
<glyph unicode="&#xd8;" horiz-adv-x="707" d="M62 -55L529 743H645L177 -55H62ZM353 -8Q269 -8 215 2T129 35T84 99T66 200T62 344Q62 428 66 488T84 588T129 652T214 686T353 696Q437 696 491 686T577 653T622 589T641 488T645 344Q645 260 641 200T623 100T577
36T492 2T353 -8ZM353 108Q397 108 424 111T468 125T491 161T501 230T503 344Q503 414 501 458T492 527T468 563T425 577T353 580Q310 580 283 577T239 563T216 527T206 458T204 344Q204 274 206 230T215 161T239 125T282 111T353 108Z" />
<glyph unicode="&#xd9;" horiz-adv-x="698" d="M349 -8Q276 -8 227 1T148 30T103 86T82 176T76 307V688H218V271Q218 218 221 186T236 136T275 114T349 108Q396 108 422 113T461 136T476 185T479 271V688H621V307Q621 231 616 177T595 86T550 30T471 1T349 -8ZM311
760L179 899V904H312L407 766V760H311Z" />
<glyph unicode="&#xda;" horiz-adv-x="698" d="M349 -8Q276 -8 227 1T148 30T103 86T82 176T76 307V688H218V271Q218 218 221 186T236 136T275 114T349 108Q396 108 422 113T461 136T476 185T479 271V688H621V307Q621 231 616 177T595 86T550 30T471 1T349 -8ZM276
760V765L371 904H504V899L372 760H276Z" />
<glyph unicode="&#xdb;" horiz-adv-x="698" d="M349 -8Q276 -8 227 1T148 30T103 86T82 176T76 307V688H218V271Q218 218 221 186T236 136T275 114T349 108Q396 108 422 113T461 136T476 185T479 271V688H621V307Q621 231 616 177T595 86T550 30T471 1T349 -8ZM189
760V767L285 904H413L510 767V760H422L349 845L276 760H189Z" />
<glyph unicode="&#xdc;" horiz-adv-x="698" d="M349 -8Q276 -8 227 1T148 30T103 86T82 176T76 307V688H218V271Q218 218 221 186T236 136T275 114T349 108Q396 108 422 113T461 136T476 185T479 271V688H621V307Q621 231 616 177T595 86T550 30T471 1T349 -8ZM189
783V883H302V783H189ZM396 783V883H509V783H396Z" />
<glyph unicode="&#xdd;" horiz-adv-x="624" d="M240 0V244L4 688H153L311 382H318L475 688H619L382 244V0H240ZM239 760V765L334 904H467V899L335 760H239Z" />
<glyph unicode="&#xde;" horiz-adv-x="647" d="M82 0V688H224V579H401Q465 579 505 563T568 518T598 446T607 351Q607 302 600 261T570 188T507 140T397 123H224V0H82ZM224 239H341Q384 239 409 243T446 260T461 294T465 351Q465 386 462 408T447 442T411 459T345
464H224V239Z" />
<glyph unicode="&#xdf;" horiz-adv-x="604" d="M71 0V552Q71 620 92 663T166 728T308 750Q379 750 424 739T495 705T531 649T541 574Q541 512 513 479T425 436V432Q487 421 518 379T550 240Q550 176 542 131T510 56T443 14T328 0H274V106H308Q344 106 366 109T399
125T413 166T417 244Q417 303 408 331T375 368T309 377H288V484H309Q349 484 370 489T399 511T407 556Q407 594 399 612T368 637T305 644Q269 644 247 637T214 608T203 535V0H71Z" />
<glyph unicode="&#xe0;" horiz-adv-x="565" d="M196 -8Q147 -8 113 6T62 54T44 143Q44 202 58 236T107 286T204 302Q214 302 232 302T273 301T319 300T361 298V318Q361 351 356 370T337 398T296 409T226 411Q204 411 175 410T119 407T76 403V503Q119 510 169 514T270
518Q330 518 370 511T435 487T472 447T489 389T493 312V0H370L366 62H358Q341 31 314 16T256 -3T196 -8ZM259 94Q281 94 297 97T326 107T346 127Q353 140 357 159T361 205V220H240Q212 220 197 216T177 198T172 156Q172 130 178 117T203 99T259 94ZM257 582L125
721V726H258L353 588V582H257Z" />
<glyph unicode="&#xe1;" horiz-adv-x="565" d="M196 -8Q147 -8 113 6T62 54T44 143Q44 202 58 236T107 286T204 302Q214 302 232 302T273 301T319 300T361 298V318Q361 351 356 370T337 398T296 409T226 411Q204 411 175 410T119 407T76 403V503Q119 510 169 514T270
518Q330 518 370 511T435 487T472 447T489 389T493 312V0H370L366 62H358Q341 31 314 16T256 -3T196 -8ZM259 94Q281 94 297 97T326 107T346 127Q353 140 357 159T361 205V220H240Q212 220 197 216T177 198T172 156Q172 130 178 117T203 99T259 94ZM186 582V587L281
726H414V721L282 582H186Z" />
<glyph unicode="&#xe2;" horiz-adv-x="565" d="M196 -8Q147 -8 113 6T62 54T44 143Q44 202 58 236T107 286T204 302Q214 302 232 302T273 301T319 300T361 298V318Q361 351 356 370T337 398T296 409T226 411Q204 411 175 410T119 407T76 403V503Q119 510 169 514T270
518Q330 518 370 511T435 487T472 447T489 389T493 312V0H370L366 62H358Q341 31 314 16T256 -3T196 -8ZM259 94Q281 94 297 97T326 107T346 127Q353 140 357 159T361 205V220H240Q212 220 197 216T177 198T172 156Q172 130 178 117T203 99T259 94ZM123 582V589L219
726H347L444 589V582H356L283 667L210 582H123Z" />
<glyph unicode="&#xe3;" horiz-adv-x="565" d="M196 -8Q147 -8 113 6T62 54T44 143Q44 202 58 236T107 286T204 302Q214 302 232 302T273 301T319 300T361 298V318Q361 351 356 370T337 398T296 409T226 411Q204 411 175 410T119 407T76 403V503Q119 510 169 514T270
518Q330 518 370 511T435 487T472 447T489 389T493 312V0H370L366 62H358Q341 31 314 16T256 -3T196 -8ZM259 94Q281 94 297 97T326 107T346 127Q353 140 357 159T361 205V220H240Q212 220 197 216T177 198T172 156Q172 130 178 117T203 99T259 94ZM100 582Q100
626 104 655T127 699T187 715Q215 715 243 709T296 695Q316 689 334 685T368 680Q388 680 391 689T395 726H464Q464 684 460 654T437 609T378 593Q348 593 322 600T269 613Q249 619 230 623T197 628Q176 628 173 619T170 582H100Z" />
<glyph unicode="&#xe4;" horiz-adv-x="565" d="M196 -8Q147 -8 113 6T62 54T44 143Q44 202 58 236T107 286T204 302Q214 302 232 302T273 301T319 300T361 298V318Q361 351 356 370T337 398T296 409T226 411Q204 411 175 410T119 407T76 403V503Q119 510 169 514T270
518Q330 518 370 511T435 487T472 447T489 389T493 312V0H370L366 62H358Q341 31 314 16T256 -3T196 -8ZM259 94Q281 94 297 97T326 107T346 127Q353 140 357 159T361 205V220H240Q212 220 197 216T177 198T172 156Q172 130 178 117T203 99T259 94ZM124 605V705H237V605H124ZM331
605V705H444V605H331Z" />
<glyph unicode="&#xe5;" horiz-adv-x="565" d="M196 -8Q147 -8 113 6T62 54T44 143Q44 202 58 236T107 286T204 302Q214 302 232 302T273 301T319 300T361 298V318Q361 351 356 370T337 398T296 409T226 411Q204 411 175 410T119 407T76 403V503Q119 510 169 514T270
518Q330 518 370 511T435 487T472 447T489 389T493 312V0H370L366 62H358Q341 31 314 16T256 -3T196 -8ZM259 94Q281 94 297 97T326 107T346 127Q353 140 357 159T361 205V220H240Q212 220 197 216T177 198T172 156Q172 130 178 117T203 99T259 94ZM282 568Q233
568 204 574T162 595T146 631T142 683Q142 713 145 735T162 772T204 793T283 800Q333 800 362 793T404 772T421 736T425 683Q425 653 422 631T405 595T362 575T282 568ZM282 626Q317 626 331 631T348 648T351 683Q351 706 348 718T331 736T282 741Q250 741 236
736T219 719T216 683Q216 661 219 649T236 631T282 626Z" />
<glyph unicode="&#xe6;" horiz-adv-x="869" d="M220 -8Q175 -8 142 0T87 26T55 72T44 143Q44 202 58 236T107 286T204 302Q217 302 244 302T303 300T361 298V318Q361 351 356 370T337 398T296 409T226 411Q205 411 174 410T116 407T76 403V503Q109 508 158 513T267
518Q328 518 368 508T434 475Q460 497 501 507T599 518Q662 518 701 508T764 478T797 427T811 352T814 254V217H495Q495 178 498 155T515 120T558 103T639 98Q660 98 686 99T741 102T794 106V8Q772 3 741 0T675 -6T608 -8Q555 -8 517 -2T453 16T411 50Q386 23 353
11T286 -4T220 -8ZM259 94Q283 94 301 97T331 110T351 136Q356 149 358 166T361 205V218H240Q212 218 197 214T177 197T172 156Q172 130 178 117T203 99T259 94ZM689 246Q689 302 687 335T675 385T647 408T595 414Q561 414 542 410T513 393T499 357T495 297H739L689
246Z" />
<glyph unicode="&#xe7;" horiz-adv-x="462" d="M268 -8Q207 -8 168 3T105 35T70 87T56 161T53 256Q53 306 56 347T72 421T107 474T169 507T267 518Q305 518 345 514T413 503V403Q392 407 360 409T301 411Q262 411 240 405T206 383T190 335T186 255Q186 205 190
174T206 127T241 105T303 99Q327 99 357 101T417 106V7Q389 0 348 -4T268 -8ZM158 -190V-185L235 18H322V13L283 -190H158Z" />
<glyph unicode="&#xe8;" horiz-adv-x="557" d="M298 -8Q230 -8 185 1T114 29T74 79T57 153T53 254Q53 322 60 372T89 454T159 502T286 518Q350 518 390 508T453 478T487 427T501 352T504 254V215H185Q185 177 188 154T205 118T248 102T329 98Q350 98 376 99T431
102T484 106V8Q462 3 431 0T365 -6T298 -8ZM378 281V297Q378 336 374 359T359 395T330 410T284 414Q251 414 232 410T203 393T189 357T185 297H396L378 281ZM259 582L127 721V726H260L355 588V582H259Z" />
<glyph unicode="&#xe9;" horiz-adv-x="557" d="M298 -8Q230 -8 185 1T114 29T74 79T57 153T53 254Q53 322 60 372T89 454T159 502T286 518Q350 518 390 508T453 478T487 427T501 352T504 254V215H185Q185 177 188 154T205 118T248 102T329 98Q350 98 376 99T431
102T484 106V8Q462 3 431 0T365 -6T298 -8ZM378 281V297Q378 336 374 359T359 395T330 410T284 414Q251 414 232 410T203 393T189 357T185 297H396L378 281ZM187 582V587L282 726H415V721L283 582H187Z" />
<glyph unicode="&#xea;" horiz-adv-x="557" d="M298 -8Q230 -8 185 1T114 29T74 79T57 153T53 254Q53 322 60 372T89 454T159 502T286 518Q350 518 390 508T453 478T487 427T501 352T504 254V215H185Q185 177 188 154T205 118T248 102T329 98Q350 98 376 99T431
102T484 106V8Q462 3 431 0T365 -6T298 -8ZM378 281V297Q378 336 374 359T359 395T330 410T284 414Q251 414 232 410T203 393T189 357T185 297H396L378 281ZM124 582V589L220 726H348L445 589V582H357L284 667L211 582H124Z" />
<glyph unicode="&#xeb;" horiz-adv-x="557" d="M298 -8Q230 -8 185 1T114 29T74 79T57 153T53 254Q53 322 60 372T89 454T159 502T286 518Q350 518 390 508T453 478T487 427T501 352T504 254V215H185Q185 177 188 154T205 118T248 102T329 98Q350 98 376 99T431
102T484 106V8Q462 3 431 0T365 -6T298 -8ZM378 281V297Q378 336 374 359T359 395T330 410T284 414Q251 414 232 410T203 393T189 357T185 297H396L378 281ZM125 605V705H238V605H125ZM332 605V705H445V605H332Z" />
<glyph unicode="&#xec;" horiz-adv-x="275" d="M71 0V510H204V0H71ZM367 582L235 721V726H368L463 588V582H367Z" />
<glyph unicode="&#xed;" horiz-adv-x="275" d="M71 0V510H204V0H71ZM40 582V587L135 726H268V721L136 582H40Z" />
<glyph unicode="&#xee;" horiz-adv-x="275" d="M71 0V510H204V0H71ZM233 582V589L329 726H457L554 589V582H466L393 667L320 582H233Z" />
<glyph unicode="&#xef;" horiz-adv-x="275" d="M71 0V510H204V0H71ZM233 605V705H346V605H233ZM440 605V705H553V605H440Z" />
<glyph unicode="&#xf0;" horiz-adv-x="577" d="M287 -8Q221 -8 178 0T109 27T72 76T57 151T53 254Q53 322 58 371T82 453T140 501T247 517Q283 517 309 513T354 500L357 504Q348 530 337 553T312 597L194 579V660L261 670Q243 689 225 706T190 739V743H333Q347
730 360 717T387 689L504 707V627L440 616Q461 582 477 542T503 450Q509 424 513 395T519 333T521 265Q521 201 518 155T503 78T466 28T397 1T287 -8ZM287 98Q325 98 346 102T376 123T387 170T389 254Q389 303 387 333T376 381T346 405T287 411Q249 411 228 406T198
386T188 339T186 254Q186 201 187 170T198 123T228 103T287 98Z" />
<glyph unicode="&#xf1;" horiz-adv-x="593" d="M71 0V510H195L199 446H207Q221 471 241 487T292 510T362 518Q414 518 445 505T494 467T516 405T522 319V0H390V270Q390 316 387 343T375 383T348 399T300 403Q268 403 249 396T220 372T207 329T203 264V0H71ZM113
582Q113 626 117 655T140 699T200 715Q228 715 256 709T309 695Q329 689 347 685T381 680Q401 680 404 689T408 726H477Q477 684 473 654T450 609T391 593Q361 593 335 600T282 613Q262 619 243 623T210 628Q189 628 186 619T183 582H113Z" />
<glyph unicode="&#xf2;" horiz-adv-x="574" d="M287 -8Q221 -8 177 0T108 26T72 74T57 149T53 256Q53 318 56 362T71 437T108 485T177 510T287 518Q353 518 396 511T465 485T502 437T517 363T521 256Q521 194 518 149T503 74T466 26T397 0T287 -8ZM287 99Q324
99 345 104T375 124T386 172T388 256Q388 308 386 339T376 386T346 406T287 411Q249 411 228 407T198 387T188 340T186 256Q186 204 187 172T198 125T228 104T287 99ZM261 582L129 721V726H262L357 588V582H261Z" />
<glyph unicode="&#xf3;" horiz-adv-x="574" d="M287 -8Q221 -8 177 0T108 26T72 74T57 149T53 256Q53 318 56 362T71 437T108 485T177 510T287 518Q353 518 396 511T465 485T502 437T517 363T521 256Q521 194 518 149T503 74T466 26T397 0T287 -8ZM287 99Q324
99 345 104T375 124T386 172T388 256Q388 308 386 339T376 386T346 406T287 411Q249 411 228 407T198 387T188 340T186 256Q186 204 187 172T198 125T228 104T287 99ZM189 582V587L284 726H417V721L285 582H189Z" />
<glyph unicode="&#xf4;" horiz-adv-x="574" d="M287 -8Q221 -8 177 0T108 26T72 74T57 149T53 256Q53 318 56 362T71 437T108 485T177 510T287 518Q353 518 396 511T465 485T502 437T517 363T521 256Q521 194 518 149T503 74T466 26T397 0T287 -8ZM287 99Q324
99 345 104T375 124T386 172T388 256Q388 308 386 339T376 386T346 406T287 411Q249 411 228 407T198 387T188 340T186 256Q186 204 187 172T198 125T228 104T287 99ZM126 582V589L222 726H350L447 589V582H359L286 667L213 582H126Z" />
<glyph unicode="&#xf5;" horiz-adv-x="574" d="M287 -8Q221 -8 177 0T108 26T72 74T57 149T53 256Q53 318 56 362T71 437T108 485T177 510T287 518Q353 518 396 511T465 485T502 437T517 363T521 256Q521 194 518 149T503 74T466 26T397 0T287 -8ZM287 99Q324
99 345 104T375 124T386 172T388 256Q388 308 386 339T376 386T346 406T287 411Q249 411 228 407T198 387T188 340T186 256Q186 204 187 172T198 125T228 104T287 99ZM104 582Q104 626 108 655T131 699T191 715Q219 715 247 709T300 695Q320 689 338 685T372 680Q392
680 395 689T399 726H468Q468 684 464 654T441 609T382 593Q352 593 326 600T273 613Q253 619 234 623T201 628Q180 628 177 619T174 582H104Z" />
<glyph unicode="&#xf6;" horiz-adv-x="574" d="M287 -8Q221 -8 177 0T108 26T72 74T57 149T53 256Q53 318 56 362T71 437T108 485T177 510T287 518Q353 518 396 511T465 485T502 437T517 363T521 256Q521 194 518 149T503 74T466 26T397 0T287 -8ZM287 99Q324
99 345 104T375 124T386 172T388 256Q388 308 386 339T376 386T346 406T287 411Q249 411 228 407T198 387T188 340T186 256Q186 204 187 172T198 125T228 104T287 99ZM127 605V705H240V605H127ZM334 605V705H447V605H334Z" />
<glyph unicode="&#xf7;" horiz-adv-x="540" d="M70 202V303H470V202H70ZM219 19V114H320V19H219ZM219 391V485H320V391H219Z" />
<glyph unicode="&#xf8;" horiz-adv-x="574" d="M53 -55L418 565H521L155 -55H53ZM287 -8Q221 -8 177 0T108 26T72 74T57 149T53 256Q53 318 56 362T71 437T108 485T177 510T287 518Q353 518 396 511T465 485T502 437T517 363T521 256Q521 194 518 149T503 74T466
26T397 0T287 -8ZM287 99Q324 99 345 104T375 124T386 172T388 256Q388 308 386 339T376 386T346 406T287 411Q249 411 228 407T198 387T188 340T186 256Q186 204 187 172T198 125T228 104T287 99Z" />
<glyph unicode="&#xf9;" horiz-adv-x="593" d="M232 -8Q180 -8 148 5T100 43T77 105T71 191V510H203V240Q203 194 206 167T218 127T245 111T293 107Q325 107 345 114T374 138T387 181T390 246V510H522V0H399L395 64H386Q374 40 353 24T301 0T232 -8ZM270 582L138
721V726H271L366 588V582H270Z" />
<glyph unicode="&#xfa;" horiz-adv-x="593" d="M232 -8Q180 -8 148 5T100 43T77 105T71 191V510H203V240Q203 194 206 167T218 127T245 111T293 107Q325 107 345 114T374 138T387 181T390 246V510H522V0H399L395 64H386Q374 40 353 24T301 0T232 -8ZM199 582V587L294
726H427V721L295 582H199Z" />
<glyph unicode="&#xfb;" horiz-adv-x="593" d="M232 -8Q180 -8 148 5T100 43T77 105T71 191V510H203V240Q203 194 206 167T218 127T245 111T293 107Q325 107 345 114T374 138T387 181T390 246V510H522V0H399L395 64H386Q374 40 353 24T301 0T232 -8ZM136 582V589L232
726H360L457 589V582H369L296 667L223 582H136Z" />
<glyph unicode="&#xfc;" horiz-adv-x="593" d="M232 -8Q180 -8 148 5T100 43T77 105T71 191V510H203V240Q203 194 206 167T218 127T245 111T293 107Q325 107 345 114T374 138T387 181T390 246V510H522V0H399L395 64H386Q374 40 353 24T301 0T232 -8ZM136 605V705H249V605H136ZM343
605V705H456V605H343Z" />
<glyph unicode="&#xfd;" horiz-adv-x="593" d="M280 -206Q250 -206 218 -205T157 -201T106 -195V-97Q142 -98 167 -98T212 -99T248 -99Q299 -99 327 -94T369 -75T386 -36T390 31V65H382Q371 43 351 28T301 6T232 -2Q180 -2 148 11T100 49T77 110T71 196V510H203V245Q203
198 206 171T218 132T245 116T293 112Q325 112 345 119T374 143T387 186T390 251V510H522V58Q522 -11 515 -61T485 -143T412 -190T280 -206ZM199 582V587L294 726H427V721L295 582H199Z" />
<glyph unicode="&#xfe;" horiz-adv-x="585" d="M71 -189V743H203V449H211Q227 478 249 493T300 513T357 518Q404 518 437 506T492 464T522 383T532 256Q532 180 523 129T493 48T441 5T361 -8Q311 -8 273 4T211 56H203V-189H71ZM301 107Q334 107 354 111T383 130T396
174T399 255Q399 306 396 336T384 380T354 399T301 404Q268 404 249 396T219 369Q209 351 206 323T203 255Q203 219 205 193T215 149Q224 127 244 117T301 107Z" />
<glyph unicode="&#xff;" horiz-adv-x="593" d="M280 -206Q250 -206 218 -205T157 -201T106 -195V-97Q142 -98 167 -98T212 -99T248 -99Q299 -99 327 -94T369 -75T386 -36T390 31V65H382Q371 43 351 28T301 6T232 -2Q180 -2 148 11T100 49T77 110T71 196V510H203V245Q203
198 206 171T218 132T245 116T293 112Q325 112 345 119T374 143T387 186T390 251V510H522V58Q522 -11 515 -61T485 -143T412 -190T280 -206ZM136 605V705H249V605H136ZM343 605V705H456V605H343Z" />
<glyph unicode="&#x2013;" horiz-adv-x="475" d="M48 253V354H427V253H48Z" />
<glyph unicode="&#x2014;" horiz-adv-x="876" d="M48 253V354H827V253H48Z" />
<glyph unicode="&#x2018;" horiz-adv-x="267" d="M64 431V520Q64 572 69 604T89 655T134 681T214 688V634Q188 634 174 630T154 612T148 572V555H202V431H64Z" />
<glyph unicode="&#x2019;" horiz-adv-x="267" d="M53 431V485Q80 485 94 489T113 507T119 547V564H64V688H202V599Q202 547 198 515T178 464T133 438T53 431Z" />
<glyph unicode="&#x201a;" horiz-adv-x="267" d="M53 -133V-79Q80 -79 94 -75T113 -56T119 -17V0H64V124H202V35Q202 -16 198 -49T178 -100T133 -125T53 -133Z" />
<glyph unicode="&#x201c;" horiz-adv-x="468" d="M266 431V520Q266 572 270 604T290 655T335 681T415 688V634Q389 634 375 630T355 611T350 572V555H404V431H266ZM64 431V520Q64 572 69 604T89 655T134 681T214 688V634Q188 634 174 630T154 611T148 572V555H202V431H64Z"
/>
<glyph unicode="&#x201d;" horiz-adv-x="468" d="M254 431V485Q281 485 295 489T314 507T320 547V564H266V688H404V599Q404 547 399 515T379 464T334 438T254 431ZM53 431V485Q80 485 94 489T113 507T119 547V564H64V688H202V599Q202 547 198 515T178 464T133
438T53 431Z" />
<glyph unicode="&#x201e;" horiz-adv-x="468" d="M254 -133V-79Q281 -79 295 -75T314 -56T320 -17V0H266V124H404V35Q404 -16 399 -49T379 -100T334 -125T254 -133ZM53 -133V-79Q80 -79 94 -75T113 -56T119 -17V0H64V124H202V35Q202 -16 198 -49T178 -100T133
-125T53 -133Z" />
<glyph unicode="&#x2022;" horiz-adv-x="385" d="M191 225Q149 225 126 229T91 245T78 281T75 342Q75 381 77 404T91 440T125 457T191 462Q233 462 257 458T293 441T307 405T310 342Q310 304 307 281T293 246T258 229T191 225Z" />
<glyph unicode="&#x2039;" horiz-adv-x="309" d="M163 99L31 304L163 510H250L143 304L250 99H163Z" />
<glyph unicode="&#x203a;" horiz-adv-x="309" d="M57 99L165 304L57 510H146L278 304L146 99H57Z" />
</font>
</defs>
</svg>
