<?xml version="1.0" standalone="no"?>
<!DOCTYPE svg PUBLIC "-//W3C//DTD SVG 1.1//EN" "http://www.w3.org/Graphics/SVG/1.1/DTD/svg11.dtd">
<svg xmlns="http://www.w3.org/2000/svg">
<defs >
<font id="Saira" horiz-adv-x="564" ><font-face
    font-family="Saira Thin Thin"
    units-per-em="1000"
    panose-1="0 0 0 0 0 0 0 0 0 0"
    ascent="1135"
    descent="-439"
    alphabetic="0" />
<glyph unicode=" " horiz-adv-x="224" />
<glyph unicode="!" horiz-adv-x="198" d="M85 173Q84 217 84 259T82 342T81 419T80 486T80 541V688H118V541Q118 517 118 486T118 419T116 343T115 260T113 173H85ZM75 0V65H123V0H75Z" />
<glyph unicode="&quot;" horiz-adv-x="270" d="M174 454L166 599V688H205V599L197 454H174ZM73 454L65 599V688H104V599L96 454H73Z" />
<glyph unicode="#" horiz-adv-x="833" d="M134 0L180 202H77V236H188L236 442H114V476H244L293 688H327L278 476H479L528 688H562L513 476H623V442H505L457 236H586V202H449L403 0H369L415 202H214L168 0H134ZM222 236H423L471 442H270L222 236Z" />
<glyph unicode="$" horiz-adv-x="537" d="M276 68Q243 69 210 70T148 73T96 79V113Q122 110 142 108T181 104T219 102T264 101Q330 100 363 109T409 143T421 215Q421 264 414 286T391 314T349 323L192 338Q148 343 124 355T90 395T80 468Q80 518 92 548T127 593T185
613T265 619Q293 619 322 618T380 614T429 607V573Q403 577 374 580T317 584T264 586Q232 586 205 584T158 572T127 539T116 475Q116 433 122 412T146 384T192 373L355 358Q397 354 419 342T449 300T457 215Q457 154 439 122T381 79T276 68ZM254 -8V696H288V-8H254Z"
/>
<glyph unicode="%" horiz-adv-x="795" d="M152 0L601 688H643L194 0H152ZM196 311Q149 311 122 318T81 346T64 404T60 503Q60 564 64 602T81 660T121 688T196 696Q243 696 270 689T310 661T327 602T331 503Q331 442 327 405T310 347T270 319T196 311ZM196 345Q230
345 250 348T280 366T293 412T296 503Q296 562 294 594T283 641T253 658T196 662Q162 662 142 659T112 641T99 595T96 503Q96 445 99 413T112 366T142 349T196 345ZM600 -8Q553 -8 526 -1T485 27T468 85T464 184Q464 245 468 283T485 341T525 369T600 377Q647 377
674 370T714 342T731 283T735 184Q735 123 731 86T714 28T674 0T600 -8ZM600 26Q634 26 654 29T684 47T697 93T700 184Q700 243 698 275T687 322T657 339T600 343Q566 343 546 340T516 322T503 276T500 184Q500 126 503 94T516 47T546 30T600 26Z" />
<glyph unicode="&amp;" horiz-adv-x="734" d="M363 -8Q288 -8 237 0T155 24T106 63T83 116T77 184Q77 240 91 272T134 322T202 349V353Q142 367 113 403T83 515Q83 557 94 590T134 647T218 683T362 696Q392 696 428 694T500 689T563 680V648Q534 653 501 656T436
662T383 664Q295 664 242 656T163 629T127 582T118 513Q118 491 122 466T143 418T193 381T289 366H404V332H289Q228 332 193 321T140 289T117 240T112 177Q112 110 139 78T223 35T363 24Q394 24 428 25T496 30T560 40L532 15V366H689V332H567V8Q546 5 513 1T441
-5T363 -8Z" />
<glyph unicode="&apos;" horiz-adv-x="169" d="M73 454L65 599V688H104V599L96 454H73Z" />
<glyph unicode="(" horiz-adv-x="279" d="M226 -150Q195 -112 173 -80T134 -14T109 62T95 161T90 297Q90 376 94 432T108 531T134 607T172 673T226 743H259Q233 709 212 679T174 617T147 542T131 440T125 297Q125 214 130 155T147 53T174 -23T211 -85T259 -150H226Z" />
<glyph unicode=")" horiz-adv-x="279" d="M20 -150Q46 -115 67 -86T105 -23T132 52T148 154T154 297Q154 380 149 439T132 541T105 616T68 679T20 743H53Q84 705 106 673T145 607T170 531T184 433T189 297Q189 218 185 161T171 62T145 -14T107 -80T53 -150H20Z" />
<glyph unicode="*" horiz-adv-x="438" d="M200 321L205 480L70 396L51 429L191 504L51 580L70 613L205 528L200 688H238L232 528L368 613L387 580L247 504L387 429L368 396L233 480L238 321H200Z" />
<glyph unicode="+" horiz-adv-x="540" d="M253 53V237H70V269H253V453H285V269H470V237H285V53H253Z" />
<glyph unicode="," horiz-adv-x="176" d="M34 -101V-80Q57 -80 67 -75T81 -55T84 -17V0H64V65H112V-10Q112 -37 109 -54T97 -82T73 -97T34 -101Z" />
<glyph unicode="-" horiz-adv-x="355" d="M65 268V304H290V268H65Z" />
<glyph unicode="." horiz-adv-x="176" d="M64 0V65H112V0H64Z" />
<glyph unicode="/" horiz-adv-x="328" d="M0 -55L290 743H328L37 -55H0Z" />
<glyph unicode="0" horiz-adv-x="676" d="M338 -8Q265 -8 219 -1T146 26T108 85T93 187T90 344Q90 438 93 501T107 603T145 662T218 689T338 696Q411 696 457 689T530 662T568 603T583 501T586 344Q586 250 583 187T569 85T531 26T458 -1T338 -8ZM338 26Q400 26
439 30T501 49T534 98T547 191T550 344Q550 437 548 496T535 590T502 639T440 658T338 662Q277 662 237 658T175 639T142 590T129 497T126 344Q126 251 128 192T141 98T174 49T237 30T338 26Z" />
<glyph unicode="1" horiz-adv-x="365" d="M199 0V642L50 563V600L206 688H235V0H199Z" />
<glyph unicode="2" horiz-adv-x="608" d="M80 0V71Q80 127 82 162T94 220T127 259T194 295L400 385Q438 402 457 419T484 461T492 523Q492 582 476 611T419 651T302 662Q276 662 240 661T165 657T94 651V683Q121 687 157 690T234 694T310 696Q356 696 395 692T465
673T511 624T528 532Q528 476 517 443T478 389T402 347L169 245Q141 233 130 215T118 170T116 100V34H528V0H80Z" />
<glyph unicode="3" horiz-adv-x="596" d="M259 -8Q230 -8 195 -6T126 -1T65 6V38Q99 35 135 32T203 28T259 26Q326 26 374 36T449 79T475 177Q475 232 460 266T411 316T322 332H184V366H322Q356 366 389 378T444 421T467 513Q467 578 444 610T372 652T249 662Q224
662 193 661T129 657T69 650V682Q96 686 129 689T197 694T260 696Q330 696 377 686T451 655T491 600T503 515Q503 440 472 403T386 354V350Q424 344 452 327T495 275T511 184Q511 138 502 102T466 42T389 5T259 -8Z" />
<glyph unicode="4" horiz-adv-x="638" d="M438 0V176H54V207L332 688H374L96 210H439V510H474V210H583V176H474V0H438Z" />
<glyph unicode="5" horiz-adv-x="616" d="M284 -8Q255 -8 220 -6T151 -1T90 6V38Q124 35 160 32T228 28T284 26Q351 26 393 34T459 62T491 115T500 197Q500 250 491 282T456 331T385 354T264 360Q249 360 223 358T165 353T98 345V688H485V654H134V382Q156 386
183 388T240 392T303 394Q382 394 428 383T498 347T528 288T536 204Q536 144 526 103T488 38T411 3T284 -8Z" />
<glyph unicode="6" horiz-adv-x="648" d="M350 -8Q281 -8 232 -1T151 32T104 112Q98 132 95 163T91 237T90 334Q90 389 91 433T97 512T109 573Q125 624 156 650T236 686T357 696Q381 696 413 694T480 689T550 682V650Q521 654 488 656T423 660T365 662Q285 662
238 650T166 605T134 510T126 345H132Q144 359 166 371T231 390T347 397Q415 397 461 391T536 367T576 311T588 210Q588 145 579 103T545 36T473 2T350 -8ZM342 26Q406 26 447 31T511 52T543 102T552 191Q552 252 544 286T513 337T450 358T342 363Q269 363 226
356T163 332T136 291T129 228Q129 161 139 121T173 60T238 33T342 26Z" />
<glyph unicode="7" horiz-adv-x="558" d="M161 0L458 654H45V688H500V659L202 0H161Z" />
<glyph unicode="8" horiz-adv-x="682" d="M341 -8Q259 -8 208 3T131 39T95 99T85 184Q85 245 99 277T141 325T210 349V353Q148 364 120 402T91 515Q91 563 102 597T141 653T217 685T341 696Q416 696 464 686T541 654T580 598T591 515Q591 440 563 402T472 353V349Q513
341 541 326T583 278T597 184Q597 135 588 99T552 39T475 4T341 -8ZM341 26Q425 26 473 37T541 82T561 177Q561 227 552 257T518 303T451 325T341 331Q274 331 231 326T164 304T131 257T121 177Q121 115 141 82T209 38T341 26ZM341 365Q427 365 473 378T537 423T555
513Q555 571 538 603T475 648T341 662Q253 662 207 649T144 603T127 513Q127 456 145 424T209 378T341 365Z" />
<glyph unicode="9" horiz-adv-x="648" d="M291 -8Q266 -8 233 -6T165 -1T98 6V38Q127 35 159 32T224 28T283 26Q363 26 410 38T482 83T514 178T522 343H516Q505 329 483 317T417 298T301 291Q233 291 187 297T112 321T72 377T60 478Q60 543 69 585T103 652T175
686T298 696Q368 696 417 689T496 659T541 587Q552 549 555 492T558 354Q558 300 557 255T551 174T537 109Q522 61 492 36T412 2T291 -8ZM306 325Q379 325 422 332T485 356T512 397T519 460Q519 527 509 567T475 628T410 655T306 662Q242 662 201 657T137 636T105
586T96 497Q96 436 104 402T135 351T198 330T306 325Z" />
<glyph unicode=":" horiz-adv-x="176" d="M64 445V510H112V445H64ZM64 0V65H112V0H64Z" />
<glyph unicode=";" horiz-adv-x="176" d="M34 -101V-80Q57 -80 67 -75T81 -55T84 -17V0H64V65H112V-10Q112 -37 109 -54T97 -82T73 -97T34 -101ZM64 445V510H112V445H64Z" />
<glyph unicode="&lt;" horiz-adv-x="541" d="M471 45L71 227V279L471 461V424L94 253L471 82V45Z" />
<glyph unicode="=" horiz-adv-x="540" d="M70 337V369H470V337H70ZM70 137V169H470V137H70Z" />
<glyph unicode="&gt;" horiz-adv-x="541" d="M70 45V82L447 253L70 424V461L470 279V227L70 45Z" />
<glyph unicode="?" horiz-adv-x="496" d="M164 173V260Q164 298 171 316T197 345T248 366L276 376Q322 392 344 407T373 450T380 526Q380 587 364 615T311 653T211 662Q196 662 177 661T134 659T87 655T40 650V682Q67 686 99 689T161 694T216 696Q268 696 305
690T367 666T404 617T416 537Q416 504 414 477T404 427T377 387T325 358L304 351Q266 337 245 328T215 310T203 290T200 258V173H164ZM158 0V65H206V0H158Z" />
<glyph unicode="@" horiz-adv-x="924" d="M462 -108Q352 -108 282 -100T173 -67T116 1T94 117T90 294Q90 399 94 470T115 586T172 655T282 687T462 696Q572 696 642 688T751 655T808 587T830 471T834 294Q834 215 828 171T807 106T769 80T710 75H608L605 146H601Q590
111 564 94T505 73T443 68Q389 68 355 77T303 114T286 193Q286 240 297 267T336 307T415 319Q429 319 461 319T532 317T601 315V352Q601 399 596 426T575 465T531 482T455 486Q439 486 420 485T382 483T346 479T317 475V508Q346 513 385 515T468 518Q521 518 554
511T605 487T629 438T636 358V105H722Q742 105 756 109T781 130T795 185T800 294Q800 398 796 466T776 574T726 633T630 658Q598 662 556 664T461 666Q409 666 368 664T294 658Q233 652 198 633T147 574T127 466T123 294Q123 190 127 122T149 15T205 -44T312 -71Q330
-73 370 -75T462 -77Q496 -77 523 -77T571 -77T609 -76T636 -74V-105Q624 -106 613 -106T583 -107T536 -108T462 -108ZM442 100Q501 100 536 113T586 160T601 254V287H423Q382 287 360 281T329 255T321 193Q321 155 330 135T366 107T442 100Z" />
<glyph unicode="A" horiz-adv-x="683" d="M40 0L324 688H359L643 0H604L513 222H169L78 0H40ZM183 256H499L344 637H339L183 256Z" />
<glyph unicode="B" horiz-adv-x="687" d="M115 0V688H422Q490 688 527 666T579 605T594 516Q594 474 583 441T546 385T477 354V350Q533 341 559 314T594 251T602 180Q602 148 596 116T570 58T513 16T413 0H115ZM151 34H417Q474 34 506 50T552 100T566 183Q566
234 551 267T503 316T417 332H151V34ZM151 366H414Q460 366 492 383T541 432T558 510Q558 558 546 590T502 638T414 654H151V366Z" />
<glyph unicode="C" horiz-adv-x="578" d="M357 -8Q289 -8 242 -2T165 24T119 82T96 185T90 344Q90 438 96 501T118 603T164 662T241 689T357 696Q383 696 410 695T464 691T509 684V652Q489 655 465 657T415 661T367 662Q302 662 258 657T188 634T148 583T131 490T126
344Q126 256 130 198T148 106T187 54T258 32T367 26Q402 26 442 29T513 36V2Q493 -1 466 -3T411 -6T357 -8Z" />
<glyph unicode="D" horiz-adv-x="693" d="M115 0V688H320Q400 688 452 682T534 655T580 597T599 498T603 344Q603 252 599 191T580 91T535 33T452 7T320 0H115ZM151 34H300Q376 34 425 37T503 55T545 103T563 194T567 344Q567 435 563 493T545 585T502 632T424
650T300 654H151V34Z" />
<glyph unicode="E" horiz-adv-x="598" d="M115 0V688H541V654H151V365H494V331H151V34H541V0H115Z" />
<glyph unicode="F" horiz-adv-x="561" d="M115 0V688H521V654H151V351H484V317H151V0H115Z" />
<glyph unicode="G" horiz-adv-x="683" d="M372 -8Q301 -8 252 -1T171 26T122 85T97 187T90 344Q90 438 97 501T122 603T172 662T253 689T372 696Q406 696 444 694T518 687T580 678V646Q551 651 518 654T455 660T402 662Q335 662 287 659T208 641T159 592T134 499T126
344Q126 261 130 204T149 112T190 58T261 33T371 26Q395 26 427 28T492 32T547 38V315H353V349H583V9Q551 4 514 0T439 -6T372 -8Z" />
<glyph unicode="H" horiz-adv-x="738" d="M115 0V688H151V365H587V688H623V0H587V331H151V0H115Z" />
<glyph unicode="I" horiz-adv-x="266" d="M115 0V688H151V0H115Z" />
<glyph unicode="J" horiz-adv-x="324" d="M40 0V34Q93 36 122 41T164 65T180 127T183 246V688H219V264Q219 189 217 140T206 63T178 22T125 5T40 0Z" />
<glyph unicode="K" horiz-adv-x="665" d="M115 0V688H151V366H324L580 688H622L354 349L625 0H582L324 332H151V0H115Z" />
<glyph unicode="L" horiz-adv-x="536" d="M115 0V688H151V34H501V0H115Z" />
<glyph unicode="M" horiz-adv-x="915" d="M115 0V688H161L455 53H460L755 688H800V0H764V618H760L473 0H441L154 618H150V0H115Z" />
<glyph unicode="N" horiz-adv-x="738" d="M115 0V688H150L584 66H588V688H623V0H588L154 622H150V0H115Z" />
<glyph unicode="O" horiz-adv-x="726" d="M363 -8Q286 -8 236 -1T156 26T112 85T94 187T90 344Q90 438 94 501T112 603T155 662T235 689T363 696Q440 696 490 689T570 662T614 603T632 501T636 344Q636 250 632 187T614 85T571 26T491 -1T363 -8ZM363 26Q428 26
471 29T540 48T579 97T596 190T600 344Q600 438 596 497T579 591T540 640T471 658T363 662Q298 662 255 659T186 640T147 591T130 498T126 344Q126 250 130 191T147 97T186 48T255 30T363 26Z" />
<glyph unicode="P" horiz-adv-x="655" d="M115 0V688H403Q471 688 509 671T564 625T585 559T590 481Q590 441 586 404T563 337T507 291T403 274H151V0H115ZM151 308H401Q455 308 485 320T531 354T550 409T554 481Q554 521 551 553T533 607T487 642T401 654H151V308Z" />
<glyph unicode="Q" horiz-adv-x="726" d="M604 -115L350 218H393L647 -113V-115H604ZM363 -8Q286 -8 236 -1T156 26T112 85T94 187T90 344Q90 438 94 501T112 603T155 662T235 689T363 696Q440 696 490 689T570 662T614 603T632 501T636 344Q636 250 632 187T614
85T571 26T491 -1T363 -8ZM363 26Q428 26 471 29T540 48T579 97T596 190T600 344Q600 438 596 497T579 591T540 640T471 658T363 662Q298 662 255 659T186 640T147 591T130 498T126 344Q126 250 130 191T147 97T186 48T255 30T363 26Z" />
<glyph unicode="R" horiz-adv-x="685" d="M115 0V688H421Q485 688 521 672T573 627T594 563T598 491Q598 450 592 412T561 344T484 302L605 0H565L444 304L459 298Q452 296 441 295T406 294H151V0H115ZM151 328H404Q459 328 491 340T538 374T557 425T562 491Q562
527 559 556T542 608T499 642T419 654H151V328Z" />
<glyph unicode="S" horiz-adv-x="636" d="M333 -8Q297 -8 255 -7T172 -2T100 4V39Q134 36 174 33T254 28T323 26Q375 26 410 30T475 50Q495 61 504 81T517 127T520 183Q520 229 518 256T504 297T466 318T392 330L209 349Q161 354 135 367T97 402T83 451T80 515Q80
572 94 608T137 663T211 689T318 696Q356 696 394 695T466 690T521 683V650Q493 654 458 656T388 660T321 662Q259 662 220 656T156 632Q130 615 123 585T116 513Q116 465 122 439T150 401T215 384L389 366Q433 362 465 356T518 336T548 290Q552 278 553 263T555
229T556 188Q556 132 546 96T517 38T470 7T408 -5T333 -8Z" />
<glyph unicode="T" horiz-adv-x="582" d="M273 0V654H40V688H542V654H309V0H273Z" />
<glyph unicode="U" horiz-adv-x="717" d="M359 -8Q289 -8 243 0T169 29T127 84T109 170T105 294V688H141V264Q141 192 147 146T173 74T238 37T359 26Q436 26 479 36T544 73T570 146T576 264V688H612V294Q612 222 608 171T591 84T550 29T476 1T359 -8Z" />
<glyph unicode="V" horiz-adv-x="663" d="M314 0L40 688H79L329 55H334L585 688H623L349 0H314Z" />
<glyph unicode="W" horiz-adv-x="984" d="M252 0L48 688H87L268 65H274L474 688H512L712 65H718L899 688H936L732 0H697L494 623H490L287 0H252Z" />
<glyph unicode="X" horiz-adv-x="674" d="M40 0L315 346L44 688H89L334 378H341L587 688H631L359 347L634 0H589L341 313H333L84 0H40Z" />
<glyph unicode="Y" horiz-adv-x="599" d="M281 0V281L20 688H62L296 319H303L538 688H579L317 281V0H281Z" />
<glyph unicode="Z" horiz-adv-x="601" d="M60 0V32L493 654H71V688H538V656L106 34H546V0H60Z" />
<glyph unicode="[" horiz-adv-x="309" d="M115 -150V743H269V710L150 706V-113L269 -117V-150H115Z" />
<glyph unicode="\" horiz-adv-x="328" d="M291 -55L0 743H38L328 -55H291Z" />
<glyph unicode="]" horiz-adv-x="309" d="M40 -150V-117L159 -113V706L40 710V743H194V-150H40Z" />
<glyph unicode="^" horiz-adv-x="470" d="M70 444L209 749H261L400 444H363L235 726L107 444H70Z" />
<glyph unicode="_" horiz-adv-x="340" d="M0 -160V-128H340V-160H0Z" />
<glyph unicode="`" horiz-adv-x="153" d="M126 606L0 738V743H46L153 611V606H126Z" />
<glyph unicode="a" horiz-adv-x="574" d="M249 -8Q186 -8 145 3T85 45T65 138Q65 194 78 225T124 270T216 283Q228 283 253 283T310 281T376 280T439 278V324Q439 380 433 412T408 461T354 481T263 486Q240 486 210 484T150 480T101 473V506Q131 511 177 514T277
518Q326 518 360 513T417 496T452 463T469 409T474 330V0H446L443 83H439Q425 42 394 23T324 -2T249 -8ZM248 24Q283 24 316 27T376 43T415 84Q429 114 434 143T439 210V251H226Q176 251 149 243T111 211T100 138Q100 92 112 67T156 33T248 24Z" />
<glyph unicode="b" horiz-adv-x="596" d="M320 -8Q280 -8 243 -2T178 23T135 83H131L128 0H100V743H135V436H139Q151 466 175 484T235 510T320 518Q384 518 423 507T484 467T513 387T521 255Q521 175 513 124T484 44T424 4T320 -8ZM310 24Q367 24 402 32T455 63T479
133T486 255Q486 331 480 377T455 446T402 478T310 486Q243 486 204 468T151 409Q140 375 138 339T135 255Q135 210 137 174T150 103Q164 61 204 43T310 24Z" />
<glyph unicode="c" horiz-adv-x="458" d="M276 -8Q221 -8 185 1T126 29T93 79T79 153T75 254Q75 318 80 363T98 438T133 486T189 510T271 518Q304 518 340 515T401 507V474Q375 479 341 482T278 486Q224 486 191 476T140 441T116 371T110 256Q110 183 116 137T140
67T192 33T281 24Q313 24 348 28T406 37V4Q383 -1 347 -4T276 -8Z" />
<glyph unicode="d" horiz-adv-x="596" d="M276 -8Q212 -8 173 3T112 43T83 123T75 255Q75 335 83 386T112 466T172 506T276 518Q325 518 361 510T421 484T457 436H461V743H496V0H468L465 83H461Q447 43 419 24T353 -2T276 -8ZM286 24Q352 24 392 42T445 100Q457
136 459 175T461 269Q461 305 459 339T448 400Q432 447 392 466T281 486Q226 486 192 478T140 447T116 377T110 255Q110 179 116 133T141 64T194 32T286 24Z" />
<glyph unicode="e" horiz-adv-x="562" d="M291 -8Q234 -8 196 -1T133 23T97 71T80 146T75 254Q75 329 80 379T105 460T170 504T294 518Q349 518 384 510T440 485T471 437T484 362T487 256V243H110Q110 177 116 134T140 67T195 34T296 24Q323 24 354 26T414 31T467
38V5Q448 1 419 -2T356 -6T291 -8ZM452 255V296Q452 360 445 398T419 455T370 480T291 486Q230 486 194 479T139 449T116 386T110 275H472L452 255Z" />
<glyph unicode="f" horiz-adv-x="344" d="M138 0V478H30V510H138V625Q138 657 145 678T166 712T201 732T249 741T309 743V713Q269 713 243 710T202 697T180 672T173 631V510H309V478H173V0H138Z" />
<glyph unicode="g" horiz-adv-x="596" d="M280 -206Q248 -206 214 -205T148 -203T93 -199V-166Q122 -168 154 -170T218 -173T275 -174Q337 -174 374 -163T430 -126T455 -55T461 60V74H457Q445 44 421 26T361 0T276 -8Q212 -8 173 3T112 43T83 123T75 255Q75 335
83 386T112 466T172 506T276 518Q316 518 353 512T418 487T461 427H465L468 510H496V72Q496 -7 489 -60T459 -146T394 -192T280 -206ZM286 24Q353 24 392 43T446 105Q457 136 459 172T461 255Q461 300 460 335T449 398Q433 447 393 466T286 486Q229 486 194 478T141
447T117 377T110 255Q110 179 116 133T141 64T194 32T286 24Z" />
<glyph unicode="h" horiz-adv-x="604" d="M100 0V743H135V435H139Q146 454 163 473T216 505T317 518Q378 518 415 507T471 473T497 412T504 320V0H469V315Q469 371 463 404T440 456T392 480T310 486Q244 486 208 469T157 422T138 351T135 264V0H100Z" />
<glyph unicode="i" horiz-adv-x="235" d="M96 682V743H139V682H96ZM100 0V510H135V0H100Z" />
<glyph unicode="j" horiz-adv-x="235" d="M96 682V743H139V682H96ZM-2 -200V-170Q45 -170 66 -165T94 -148T100 -113V510H135V-103Q135 -137 127 -157T101 -186T59 -197T-2 -200Z" />
<glyph unicode="k" horiz-adv-x="520" d="M100 0V743H135V277H220L433 510H477L249 262L480 0H434L220 243H135V0H100Z" />
<glyph unicode="l" horiz-adv-x="235" d="M100 0V743H135V0H100Z" />
<glyph unicode="m" horiz-adv-x="893" d="M100 0V510H128L131 427H135Q142 451 158 471T207 505T297 518Q372 518 407 497T455 427H460Q467 451 484 471T535 505T626 518Q698 518 734 499T781 436T793 320V0H758V315Q758 371 753 404T734 456T692 480T619 486Q561
486 529 471T484 426T467 355T464 264V0H429V315Q429 371 424 404T405 456T363 480T290 486Q232 486 200 469T155 422T138 351T135 264V0H100Z" />
<glyph unicode="n" horiz-adv-x="604" d="M100 0V510H128L131 427H135Q143 451 161 471T216 505T317 518Q378 518 415 507T471 473T497 412T504 320V0H469V315Q469 371 463 404T440 456T392 480T310 486Q244 486 208 469T157 422T138 351T135 264V0H100Z" />
<glyph unicode="o" horiz-adv-x="580" d="M290 -8Q229 -8 190 -2T127 21T92 68T78 143T75 254Q75 319 78 365T92 441T126 487T189 511T290 518Q351 518 390 511T453 488T488 441T502 365T505 254Q505 189 502 144T488 68T454 22T391 -1T290 -8ZM290 24Q358 24
395 33T447 66T466 135T470 254Q470 327 467 373T448 443T395 477T290 486Q223 486 186 477T133 444T114 373T110 254Q110 181 113 136T132 66T185 33T290 24Z" />
<glyph unicode="p" horiz-adv-x="596" d="M100 -200V510H128L131 427H135Q149 467 177 486T243 512T320 518Q384 518 423 507T484 467T513 387T521 255Q521 175 513 124T484 44T424 4T320 -8Q271 -8 235 0T175 26T139 74H135V-200H100ZM310 24Q367 24 402 32T455
63T479 133T486 255Q486 331 480 377T455 446T402 478T310 486Q244 486 204 467T149 404Q139 373 137 337T135 255Q135 209 137 174T146 115Q163 65 203 45T310 24Z" />
<glyph unicode="q" horiz-adv-x="596" d="M461 -200V74H457Q445 44 421 26T361 0T276 -8Q212 -8 173 3T112 43T83 123T75 255Q75 335 83 386T112 466T172 506T276 518Q316 518 353 512T418 487T461 427H465L468 510H496V-200H461ZM286 24Q353 24 392 43T448 109Q457
137 459 173T461 255Q461 300 459 337T445 410Q432 450 392 468T286 486Q229 486 194 478T141 447T117 377T110 255Q110 179 116 133T141 64T194 32T286 24Z" />
<glyph unicode="r" horiz-adv-x="341" d="M100 0V510H127L131 401H135Q147 449 172 474T233 509T311 518V482Q238 482 200 456T149 380T135 259V0H100Z" />
<glyph unicode="s" horiz-adv-x="500" d="M254 -8Q228 -8 197 -7T135 -3T81 3V36Q116 32 140 30T183 27T222 25T268 24Q326 24 354 35T391 70T400 133Q400 179 393 199T370 226T323 235L175 249Q131 254 107 266T74 304T65 373Q65 423 77 452T115 496T176 514T258
518Q281 518 307 517T360 513T407 506V473Q378 478 353 481T301 485T241 486Q200 486 168 481T118 453T100 380Q100 340 107 321T131 294T179 284L322 270Q368 266 392 255T425 217T435 133Q435 89 425 62T393 19T337 -2T254 -8Z" />
<glyph unicode="t" horiz-adv-x="329" d="M138 0V478H30V510H138V658H173V510H299V478H173V0H138Z" />
<glyph unicode="u" horiz-adv-x="604" d="M287 -8Q226 -8 189 3T133 37T107 98T100 190V510H135V195Q135 140 141 106T164 54T212 30T294 24Q360 24 396 41T447 88T466 159T469 246V510H504V0H476L473 83H469Q461 59 443 39T388 5T287 -8Z" />
<glyph unicode="v" horiz-adv-x="521" d="M243 0L35 510H73L258 49H264L449 510H486L278 0H243Z" />
<glyph unicode="w" horiz-adv-x="803" d="M217 0L39 510H77L232 57H238L383 510H421L567 57H573L727 510H764L586 0H551L404 449H398L252 0H217Z" />
<glyph unicode="x" horiz-adv-x="537" d="M40 0L246 259L47 510H92L266 290H271L446 510H490L291 260L497 0H452L271 229H266L84 0H40Z" />
<glyph unicode="y" horiz-adv-x="604" d="M284 -206Q255 -206 224 -205T164 -203T114 -199V-166Q141 -168 170 -170T227 -173T279 -174Q344 -174 382 -161T439 -121T463 -52T469 48V75H465Q459 57 442 38T388 5T287 -8Q226 -8 189 3T133 37T107 98T100 190V510H135V195Q135
140 141 106T164 54T212 30T294 24Q360 24 396 41T447 88T466 159T469 246V510H504V67Q504 -9 496 -61T464 -145T398 -191T284 -206Z" />
<glyph unicode="z" horiz-adv-x="496" d="M55 0V28L392 478H67V510H439V482L103 32H441V0H55Z" />
<glyph unicode="{" horiz-adv-x="300" d="M243 -150Q221 -138 202 -119T169 -74T148 -21T140 37V152Q140 184 130 213T96 262T30 282V311Q72 311 96 330T130 380T140 441V556Q140 585 147 613T169 667T202 711T243 743H280Q257 729 238 709T205 666T183 617T175
568V447Q175 389 156 351T90 299V294Q137 281 156 243T175 146V25Q175 1 183 -24T205 -72T238 -116T280 -150H243Z" />
<glyph unicode="|" horiz-adv-x="265" d="M115 -161V743H150V-161H115Z" />
<glyph unicode="}" horiz-adv-x="300" d="M20 -150Q43 -136 62 -116T95 -73T117 -24T125 25V146Q125 204 144 242T210 294V299Q164 312 145 350T125 447V568Q125 592 117 617T95 665T62 709T20 743H57Q80 731 98 712T131 667T152 614T160 556V441Q160 410 170
380T204 331T270 311V282Q228 282 204 263T170 214T160 152V37Q160 8 153 -20T131 -74T99 -118T57 -150H20Z" />
<glyph unicode="~" horiz-adv-x="497" d="M77 249Q77 284 81 305T99 335T139 344Q169 344 198 336T259 316Q283 308 308 301T358 293Q381 293 387 307T393 355H420Q420 320 416 299T398 269T358 260Q328 260 299 269T237 288Q214 296 189 303T139 311Q117 311
111 297T104 249H77Z" />
<glyph unicode="&#xa0;" horiz-adv-x="224" />
<glyph unicode="&#xa1;" horiz-adv-x="198" d="M80 -178V-31Q80 -7 80 24T80 91T82 167T83 250T85 337H113Q114 293 114 251T116 168T117 91T118 24T118 -31V-178H80ZM75 445V510H123V445H75Z" />
<glyph unicode="&#xa2;" horiz-adv-x="467" d="M281 68Q215 69 175 81T113 122T83 205T75 342Q75 415 81 464T103 544T141 591T199 613T278 619Q300 619 322 618T367 613T407 607V573Q384 579 348 582T278 585Q227 584 194 575T144 542T119 470T112 344Q112 265
118 218T143 145T194 111T281 101Q312 101 350 105T412 116V80Q398 77 377 75T330 70T281 68ZM261 -8V696H295V-8H261Z" />
<glyph unicode="&#xa3;" horiz-adv-x="581" d="M60 0V34H134V341H60V375H134V425Q134 508 146 560T185 643T260 684T379 696Q417 696 456 693T519 683V651Q500 654 476 656T426 660T374 662Q311 662 271 652T209 617T179 545T170 425V375H444V341H170V34H531V0H60Z" />
<glyph unicode="&#xa4;" horiz-adv-x="763" d="M97 -17L75 5L195 125Q176 155 171 208T166 343Q166 425 170 477T194 561L75 680L98 703L215 586Q239 605 279 612T381 619Q444 619 484 612T547 585L665 703L687 681L568 562Q587 531 591 478T596 343Q596 261 592
209T568 125L688 5L665 -18L546 101Q522 83 483 76T381 69Q319 69 279 76T216 102L97 -17ZM381 101Q449 101 486 110T538 145T557 218T561 343Q561 420 558 468T539 542T486 577T381 587Q314 587 277 578T224 542T205 468T201 343Q201 266 204 219T223 146T276
111T381 101Z" />
<glyph unicode="&#xa5;" horiz-adv-x="619" d="M291 0V261H76V295H271L40 688H81L306 295H313L539 688H579L347 295H542V261H327V0H291ZM76 414V448H542V414H76Z" />
<glyph unicode="&#xa6;" horiz-adv-x="265" d="M115 390V743H150V390H115ZM115 -161V192H150V-161H115Z" />
<glyph unicode="&#xa7;" horiz-adv-x="699" d="M326 -171Q298 -171 267 -170T208 -166T161 -160V-127Q184 -130 212 -132T268 -135T321 -137Q377 -137 418 -132T481 -105T504 -32Q504 11 498 34T475 69T427 89L176 156Q149 163 129 171T96 194T77 229T70 284Q70
310 73 338T87 391T120 432T180 449Q164 471 162 498T159 554Q159 598 172 626T213 669T281 690T373 696Q402 696 432 695T491 691T538 685V652Q504 657 459 659T378 662Q323 662 282 657T218 630T195 557Q195 515 202 492T232 455T297 430L528 368Q550 362 568
354T600 332T621 296T629 241Q629 216 626 187T612 133T579 92T519 76Q535 54 537 27T540 -29Q540 -73 527 -101T486 -144T419 -165T326 -171ZM106 297Q106 262 111 242T132 211T178 191L440 121Q468 114 483 110T510 105Q551 105 572 134T593 227Q593 262 587
282T563 315T508 337L262 402Q232 410 216 414T189 419Q149 419 128 390T106 297Z" />
<glyph unicode="&#xa8;" horiz-adv-x="253" d="M0 650V711H43V650H0ZM210 650V711H253V650H210Z" />
<glyph unicode="&#xa9;" horiz-adv-x="724" d="M362 -8Q282 -8 231 -1T151 26T109 85T93 187T90 344Q90 438 93 501T109 603T151 662T231 689T362 696Q442 696 493 689T573 662T615 603T631 501T634 344Q634 250 631 187T615 85T573 26T493 -1T362 -8ZM385 154Q338
154 309 160T265 184T245 241T239 344Q239 408 244 446T265 503T309 528T385 534Q410 534 434 533T470 528V499Q455 501 432 502T389 504Q349 504 325 500T290 480T274 432T270 344Q270 289 274 257T289 209T325 189T389 184Q410 184 433 185T472 189V159Q456 157
432 156T385 154ZM362 18Q433 18 478 23T550 45T587 98T602 193T605 344Q605 435 602 494T588 589T550 642T479 665T362 670Q291 670 246 665T174 643T137 590T122 495T119 344Q119 253 122 194T136 99T174 46T245 23T362 18Z" />
<glyph unicode="&#xaa;" horiz-adv-x="402" d="M178 316Q133 316 104 323T60 354T45 423Q45 464 54 487T87 519T156 529Q167 529 193 529T251 528T309 526V555Q309 606 301 629T266 658T188 665Q169 665 146 664T103 661T69 656V688Q91 692 125 694T198 696Q243
696 271 690T315 670T336 628T342 559V320H315L310 364H306Q293 341 272 331T226 319T178 316ZM177 345Q201 345 225 347T269 359T296 389Q304 408 306 428T309 473V498H163Q111 498 94 485T76 423Q76 376 96 361T177 345Z" />
<glyph unicode="&#xab;" horiz-adv-x="455" d="M192 99L60 304L192 510H223L104 304L223 99H192ZM344 99L212 304L344 510H375L256 304L375 99H344Z" />
<glyph unicode="&#xac;" horiz-adv-x="539" d="M435 53V238H70V272H469V53H435Z" />
<glyph unicode="&#xad;" horiz-adv-x="355" d="M65 268V304H290V268H65Z" />
<glyph unicode="&#xae;" horiz-adv-x="724" d="M362 -8Q282 -8 231 -1T151 26T109 85T93 187T90 344Q90 438 93 501T109 603T151 662T231 689T362 696Q442 696 493 689T573 662T615 603T631 501T634 344Q634 250 631 187T615 85T573 26T493 -1T362 -8ZM362 18Q433
18 478 23T550 45T587 98T602 193T605 344Q605 435 602 494T588 589T550 642T479 665T362 670Q291 670 246 665T174 643T137 590T122 495T119 344Q119 253 122 194T136 99T174 46T245 23T362 18ZM235 157V529H400Q448 529 468 513T494 471T499 420Q499 388 489
359T443 317L507 157H471L412 311H266V157H235ZM266 341H391Q427 341 443 351T464 380T468 420Q468 443 465 461T447 489T399 499H266V341Z" />
<glyph unicode="&#xaf;" horiz-adv-x="265" d="M0 650V681H265V650H0Z" />
<glyph unicode="&#xb0;" horiz-adv-x="385" d="M193 397Q150 397 126 403T89 425T74 470T70 546Q70 592 73 621T89 667T125 689T193 696Q236 696 260 690T296 667T311 622T315 546Q315 500 312 471T297 425T261 403T193 397ZM193 428Q237 428 255 437T277 471T281
546Q281 596 278 621T256 656T193 665Q149 665 130 656T108 622T104 546Q104 497 107 472T130 437T193 428Z" />
<glyph unicode="&#xb1;" horiz-adv-x="540" d="M253 184V368H70V400H253V584H285V400H470V368H285V184H253ZM70 0V32H470V0H70Z" />
<glyph unicode="&#xb2;" horiz-adv-x="359" d="M45 420V462Q45 505 48 528T65 564T111 590L226 635Q249 644 259 651T273 669T277 701Q277 730 268 744T236 762T171 767Q149 767 116 766T53 761V792Q77 796 113 798T182 801Q219 801 248 796T296 771T314 706Q314
676 307 657T285 627T242 604L111 553Q98 548 92 542T84 523T82 482V454H314V420H45Z" />
<glyph unicode="&#xb3;" horiz-adv-x="352" d="M154 416Q129 416 96 418T37 424V455Q66 453 98 451T150 449Q206 449 237 460T268 520Q268 561 249 577T184 594H104V627H184Q204 627 222 632T252 653T264 697Q264 728 252 743T213 762T144 767Q122 767 93 766T39
761V792Q63 796 96 798T155 801Q210 801 241 792T286 761T300 702Q300 661 282 641T232 613V611Q266 606 285 587T305 520Q305 486 294 463T250 428T154 416Z" />
<glyph unicode="&#xb4;" horiz-adv-x="153" d="M0 606V611L107 744H153V739L27 606H0Z" />
<glyph unicode="&#xb5;" horiz-adv-x="604" d="M100 -190V510H135V195Q135 140 141 106T164 54T212 30T294 24Q360 24 396 41T447 88T466 159T469 246V510H504V0H476L473 83H469Q461 59 443 39T388 5T287 -8Q243 -8 212 -2T160 19T127 56L154 36H135V-190H100Z" />
<glyph unicode="&#xb6;" horiz-adv-x="557" d="M319 -144V222Q249 222 204 227T133 245T94 284T79 351T75 454Q75 515 78 556T94 624T132 664T204 683T319 688H355V-144H319ZM421 -144V688H457V-144H421Z" />
<glyph unicode="&#xb7;" horiz-adv-x="176" d="M64 267V332H112V267H64Z" />
<glyph unicode="&#xb8;" horiz-adv-x="86" d="M0 -190V-185L60 18H86V13L40 -190H0Z" />
<glyph unicode="&#xb9;" horiz-adv-x="221" d="M114 420V753L26 710V745L122 796H151V420H114Z" />
<glyph unicode="&#xba;" horiz-adv-x="414" d="M207 315Q152 315 120 322T73 350T54 407T50 504Q50 563 54 601T73 659T120 688T207 696Q263 696 294 688T341 660T360 601T364 504Q364 444 360 407T341 350T295 323T207 315ZM207 344Q254 344 279 350T315 373T328
421T331 504Q331 554 329 586T316 635T280 658T207 665Q161 665 135 659T99 635T86 586T83 504Q83 453 85 422T98 373T135 350T207 344Z" />
<glyph unicode="&#xbb;" horiz-adv-x="455" d="M80 99L199 304L80 510H111L243 304L111 99H80ZM232 99L351 304L232 510H263L395 304L263 99H232Z" />
<glyph unicode="&#xbc;" horiz-adv-x="655" d="M114 308V641L26 598V633L122 684H151V308H114ZM41 0L490 688H532L83 0H41ZM530 0V90H311V119L465 376H506L352 123H530L536 266H566V123H627V90H566V0H530Z" />
<glyph unicode="&#xbd;" horiz-adv-x="711" d="M114 308V641L26 598V633L122 684H151V308H114ZM41 0L490 688H532L83 0H41ZM397 0V42Q397 85 400 108T417 144T463 170L578 215Q601 224 611 231T625 249T629 281Q629 310 620 324T588 342T523 347Q501 347 468 346T405
341V372Q429 376 465 378T534 381Q571 381 600 376T648 351T666 286Q666 256 659 237T637 207T594 184L463 133Q450 128 444 122T436 103T434 62V34H666V0H397Z" />
<glyph unicode="&#xbe;" horiz-adv-x="786" d="M154 304Q129 304 96 306T37 312V343Q66 341 98 339T150 337Q206 337 237 348T268 408Q268 449 249 465T184 482H104V515H184Q204 515 222 520T252 541T264 585Q264 616 252 631T213 650T144 655Q122 655 93 654T39
649V680Q63 684 96 686T155 689Q210 689 241 680T286 649T300 590Q300 549 282 529T232 501V499Q266 494 285 475T305 408Q305 374 294 351T250 316T154 304ZM172 0L621 688H663L214 0H172ZM661 0V90H442V119L596 376H637L483 123H661L667 266H697V123H758V90H697V0H661Z"
/>
<glyph unicode="&#xbf;" horiz-adv-x="426" d="M270 -186Q218 -186 181 -180T119 -156T82 -107T70 -27Q70 6 72 33T82 83T110 123T163 153L218 173Q242 182 256 188T276 202T284 221T286 252V337H322V250Q322 213 315 194T290 165T240 144L214 135Q167 119 144
103T114 60T106 -16Q106 -76 122 -105T175 -143T275 -152Q290 -152 309 -151T352 -149T399 -145T446 -140V-172Q419 -176 387 -179T325 -184T270 -186ZM280 445V510H328V445H280Z" />
<glyph unicode="&#xc0;" horiz-adv-x="683" d="M40 0L324 688H359L643 0H604L513 222H169L78 0H40ZM183 256H499L344 637H339L183 256ZM368 785L242 917V922H288L395 790V785H368Z" />
<glyph unicode="&#xc1;" horiz-adv-x="683" d="M40 0L324 688H359L643 0H604L513 222H169L78 0H40ZM183 256H499L344 637H339L183 256ZM307 784V789L414 922H460V917L334 784H307Z" />
<glyph unicode="&#xc2;" horiz-adv-x="683" d="M40 0L324 688H359L643 0H604L513 222H169L78 0H40ZM183 256H499L344 637H339L183 256ZM212 785V790L319 923H365L472 790V785H445L342 893L239 785H212Z" />
<glyph unicode="&#xc3;" horiz-adv-x="683" d="M40 0L324 688H359L643 0H604L513 222H169L78 0H40ZM183 256H499L344 637H339L183 256ZM180 799Q180 834 184 855T202 885T242 894Q270 894 297 886T352 866Q374 858 395 851T441 843Q464 843 470 857T476 905H503Q503
870 499 849T481 819T441 810Q411 810 386 819T331 838Q309 846 288 853T242 861Q220 861 214 847T207 799H180Z" />
<glyph unicode="&#xc4;" horiz-adv-x="683" d="M40 0L324 688H359L643 0H604L513 222H169L78 0H40ZM183 256H499L344 637H339L183 256ZM215 828V889H258V828H215ZM425 828V889H468V828H425Z" />
<glyph unicode="&#xc5;" horiz-adv-x="683" d="M40 0L324 688H359L643 0H604L513 222H169L78 0H40ZM183 256H499L344 637H339L183 256ZM341 663Q301 663 279 668T246 683T232 712T229 756Q229 782 232 800T245 829T278 845T341 850Q381 850 404 845T437 829T451
800T454 756Q454 730 451 712T438 684T404 668T341 663ZM341 691Q381 691 398 696T418 716T422 756Q422 782 419 796T398 817T341 823Q302 823 285 817T265 797T261 756Q261 731 264 717T285 697T341 691Z" />
<glyph unicode="&#xc6;" horiz-adv-x="947" d="M0 0L354 688H890V654H400L490 365H843V331H500L592 34H890V0H564L496 222H151L38 0H0ZM169 256H485L369 637H364L169 256Z" />
<glyph unicode="&#xc7;" horiz-adv-x="578" d="M357 -8Q289 -8 242 -2T165 24T119 82T96 185T90 344Q90 438 96 501T118 603T164 662T241 689T357 696Q383 696 410 695T464 691T509 684V652Q489 655 465 657T415 661T367 662Q302 662 258 657T188 634T148 583T131
490T126 344Q126 256 130 198T148 106T187 54T258 32T367 26Q402 26 442 29T513 36V2Q493 -1 466 -3T411 -6T357 -8ZM260 -190V-185L320 18H346V13L300 -190H260Z" />
<glyph unicode="&#xc8;" horiz-adv-x="598" d="M115 0V688H541V654H151V365H494V331H151V34H541V0H115ZM359 785L233 917V922H279L386 790V785H359Z" />
<glyph unicode="&#xc9;" horiz-adv-x="598" d="M115 0V688H541V654H151V365H494V331H151V34H541V0H115ZM298 784V789L405 922H451V917L325 784H298Z" />
<glyph unicode="&#xca;" horiz-adv-x="598" d="M115 0V688H541V654H151V365H494V331H151V34H541V0H115ZM203 785V790L310 923H356L463 790V785H436L333 893L230 785H203Z" />
<glyph unicode="&#xcb;" horiz-adv-x="598" d="M115 0V688H541V654H151V365H494V331H151V34H541V0H115ZM206 828V889H249V828H206ZM416 828V889H459V828H416Z" />
<glyph unicode="&#xcc;" horiz-adv-x="266" d="M115 0V688H151V0H115ZM159 785L33 917V922H79L186 790V785H159Z" />
<glyph unicode="&#xcd;" horiz-adv-x="266" d="M115 0V688H151V0H115ZM98 784V789L205 922H251V917L125 784H98Z" />
<glyph unicode="&#xce;" horiz-adv-x="266" d="M115 0V688H151V0H115ZM3 785V790L110 923H156L263 790V785H236L133 893L30 785H3Z" />
<glyph unicode="&#xcf;" horiz-adv-x="266" d="M115 0V688H151V0H115ZM6 828V889H49V828H6ZM216 828V889H259V828H216Z" />
<glyph unicode="&#xd0;" horiz-adv-x="693" d="M115 0V331H45V367H115V688H320Q400 688 452 682T534 655T580 597T599 498T603 344Q603 252 599 191T580 91T535 33T452 7T320 0H115ZM151 34H300Q376 34 425 37T503 55T545 103T563 194T567 344Q567 435 563 493T545
585T502 632T424 650T300 654H151V367H280V331H151V34Z" />
<glyph unicode="&#xd1;" horiz-adv-x="738" d="M115 0V688H150L584 66H588V688H623V0H588L154 622H150V0H115ZM217 799Q217 834 221 855T239 885T279 894Q307 894 334 886T389 866Q411 858 432 851T478 843Q501 843 507 857T513 905H540Q540 870 536 849T518 819T478
810Q448 810 423 819T368 838Q346 846 325 853T279 861Q257 861 251 847T244 799H217Z" />
<glyph unicode="&#xd2;" horiz-adv-x="726" d="M363 -8Q286 -8 236 -1T156 26T112 85T94 187T90 344Q90 438 94 501T112 603T155 662T235 689T363 696Q440 696 490 689T570 662T614 603T632 501T636 344Q636 250 632 187T614 85T571 26T491 -1T363 -8ZM363 26Q428
26 471 29T540 48T579 97T596 190T600 344Q600 438 596 497T579 591T540 640T471 658T363 662Q298 662 255 659T186 640T147 591T130 498T126 344Q126 250 130 191T147 97T186 48T255 30T363 26ZM389 785L263 917V922H309L416 790V785H389Z" />
<glyph unicode="&#xd3;" horiz-adv-x="726" d="M363 -8Q286 -8 236 -1T156 26T112 85T94 187T90 344Q90 438 94 501T112 603T155 662T235 689T363 696Q440 696 490 689T570 662T614 603T632 501T636 344Q636 250 632 187T614 85T571 26T491 -1T363 -8ZM363 26Q428
26 471 29T540 48T579 97T596 190T600 344Q600 438 596 497T579 591T540 640T471 658T363 662Q298 662 255 659T186 640T147 591T130 498T126 344Q126 250 130 191T147 97T186 48T255 30T363 26ZM328 784V789L435 922H481V917L355 784H328Z" />
<glyph unicode="&#xd4;" horiz-adv-x="726" d="M363 -8Q286 -8 236 -1T156 26T112 85T94 187T90 344Q90 438 94 501T112 603T155 662T235 689T363 696Q440 696 490 689T570 662T614 603T632 501T636 344Q636 250 632 187T614 85T571 26T491 -1T363 -8ZM363 26Q428
26 471 29T540 48T579 97T596 190T600 344Q600 438 596 497T579 591T540 640T471 658T363 662Q298 662 255 659T186 640T147 591T130 498T126 344Q126 250 130 191T147 97T186 48T255 30T363 26ZM233 785V790L340 923H386L493 790V785H466L363 893L260 785H233Z"
/>
<glyph unicode="&#xd5;" horiz-adv-x="726" d="M363 -8Q286 -8 236 -1T156 26T112 85T94 187T90 344Q90 438 94 501T112 603T155 662T235 689T363 696Q440 696 490 689T570 662T614 603T632 501T636 344Q636 250 632 187T614 85T571 26T491 -1T363 -8ZM363 26Q428
26 471 29T540 48T579 97T596 190T600 344Q600 438 596 497T579 591T540 640T471 658T363 662Q298 662 255 659T186 640T147 591T130 498T126 344Q126 250 130 191T147 97T186 48T255 30T363 26ZM201 799Q201 834 205 855T223 885T263 894Q291 894 318 886T373
866Q395 858 416 851T462 843Q485 843 491 857T497 905H524Q524 870 520 849T502 819T462 810Q432 810 407 819T352 838Q330 846 309 853T263 861Q241 861 235 847T228 799H201Z" />
<glyph unicode="&#xd6;" horiz-adv-x="726" d="M363 -8Q286 -8 236 -1T156 26T112 85T94 187T90 344Q90 438 94 501T112 603T155 662T235 689T363 696Q440 696 490 689T570 662T614 603T632 501T636 344Q636 250 632 187T614 85T571 26T491 -1T363 -8ZM363 26Q428
26 471 29T540 48T579 97T596 190T600 344Q600 438 596 497T579 591T540 640T471 658T363 662Q298 662 255 659T186 640T147 591T130 498T126 344Q126 250 130 191T147 97T186 48T255 30T363 26ZM236 828V889H279V828H236ZM446 828V889H489V828H446Z" />
<glyph unicode="&#xd7;" horiz-adv-x="467" d="M93 89L71 112L211 252L70 393L93 416L234 275L375 416L397 394L256 253L397 112L374 89L233 230L93 89Z" />
<glyph unicode="&#xd8;" horiz-adv-x="726" d="M90 -55L598 743H636L127 -55H90ZM363 -8Q286 -8 236 -1T156 26T112 85T94 187T90 344Q90 438 94 501T112 603T155 662T235 689T363 696Q440 696 490 689T570 662T614 603T632 501T636 344Q636 250 632 187T614 85T571
26T491 -1T363 -8ZM363 26Q428 26 471 29T540 48T579 97T596 190T600 344Q600 438 596 497T579 591T540 640T471 658T363 662Q298 662 255 659T186 640T147 591T130 498T126 344Q126 250 130 191T147 97T186 48T255 30T363 26Z" />
<glyph unicode="&#xd9;" horiz-adv-x="717" d="M359 -8Q289 -8 243 0T169 29T127 84T109 170T105 294V688H141V264Q141 192 147 146T173 74T238 37T359 26Q436 26 479 36T544 73T570 146T576 264V688H612V294Q612 222 608 171T591 84T550 29T476 1T359 -8ZM385
785L259 917V922H305L412 790V785H385Z" />
<glyph unicode="&#xda;" horiz-adv-x="717" d="M359 -8Q289 -8 243 0T169 29T127 84T109 170T105 294V688H141V264Q141 192 147 146T173 74T238 37T359 26Q436 26 479 36T544 73T570 146T576 264V688H612V294Q612 222 608 171T591 84T550 29T476 1T359 -8ZM324
784V789L431 922H477V917L351 784H324Z" />
<glyph unicode="&#xdb;" horiz-adv-x="717" d="M359 -8Q289 -8 243 0T169 29T127 84T109 170T105 294V688H141V264Q141 192 147 146T173 74T238 37T359 26Q436 26 479 36T544 73T570 146T576 264V688H612V294Q612 222 608 171T591 84T550 29T476 1T359 -8ZM229
785V790L336 923H382L489 790V785H462L359 893L256 785H229Z" />
<glyph unicode="&#xdc;" horiz-adv-x="717" d="M359 -8Q289 -8 243 0T169 29T127 84T109 170T105 294V688H141V264Q141 192 147 146T173 74T238 37T359 26Q436 26 479 36T544 73T570 146T576 264V688H612V294Q612 222 608 171T591 84T550 29T476 1T359 -8ZM232
828V889H275V828H232ZM442 828V889H485V828H442Z" />
<glyph unicode="&#xdd;" horiz-adv-x="599" d="M281 0V281L20 688H62L296 319H303L538 688H579L317 281V0H281ZM265 784V789L372 922H418V917L292 784H265Z" />
<glyph unicode="&#xde;" horiz-adv-x="655" d="M115 0V688H151V557H403Q471 557 509 540T564 494T585 428T590 350Q590 310 586 273T563 206T507 160T403 143H151V0H115ZM151 177H401Q455 177 485 189T531 223T550 278T554 350Q554 390 551 422T533 476T487 511T401
523H151V177Z" />
<glyph unicode="&#xdf;" horiz-adv-x="613" d="M100 0V527Q100 603 120 652T189 726T324 750Q385 750 424 739T487 707T519 653T529 577Q529 516 501 484T413 443V439Q475 429 506 386T538 243Q538 174 531 128T503 53T444 13T342 0H249V32H322Q382 32 418 38T472
64T497 124T503 234Q503 307 488 348T435 405T330 422H289V454H330Q389 454 425 467T477 508T494 582Q494 632 479 661T426 704T316 718Q254 718 214 703T154 646T134 522V0H100Z" />
<glyph unicode="&#xe0;" horiz-adv-x="574" d="M249 -8Q186 -8 145 3T85 45T65 138Q65 194 78 225T124 270T216 283Q228 283 253 283T310 281T376 280T439 278V324Q439 380 433 412T408 461T354 481T263 486Q240 486 210 484T150 480T101 473V506Q131 511 177
514T277 518Q326 518 360 513T417 496T452 463T469 409T474 330V0H446L443 83H439Q425 42 394 23T324 -2T249 -8ZM248 24Q283 24 316 27T376 43T415 84Q429 114 434 143T439 210V251H226Q176 251 149 243T111 211T100 138Q100 92 112 67T156 33T248 24ZM312 606L186
738V743H232L339 611V606H312Z" />
<glyph unicode="&#xe1;" horiz-adv-x="574" d="M249 -8Q186 -8 145 3T85 45T65 138Q65 194 78 225T124 270T216 283Q228 283 253 283T310 281T376 280T439 278V324Q439 380 433 412T408 461T354 481T263 486Q240 486 210 484T150 480T101 473V506Q131 511 177
514T277 518Q326 518 360 513T417 496T452 463T469 409T474 330V0H446L443 83H439Q425 42 394 23T324 -2T249 -8ZM248 24Q283 24 316 27T376 43T415 84Q429 114 434 143T439 210V251H226Q176 251 149 243T111 211T100 138Q100 92 112 67T156 33T248 24ZM236 606V611L343
744H389V739L263 606H236Z" />
<glyph unicode="&#xe2;" horiz-adv-x="574" d="M249 -8Q186 -8 145 3T85 45T65 138Q65 194 78 225T124 270T216 283Q228 283 253 283T310 281T376 280T439 278V324Q439 380 433 412T408 461T354 481T263 486Q240 486 210 484T150 480T101 473V506Q131 511 177
514T277 518Q326 518 360 513T417 496T452 463T469 409T474 330V0H446L443 83H439Q425 42 394 23T324 -2T249 -8ZM248 24Q283 24 316 27T376 43T415 84Q429 114 434 143T439 210V251H226Q176 251 149 243T111 211T100 138Q100 92 112 67T156 33T248 24ZM161 606V611L268
744H314L421 611V606H394L291 714L188 606H161Z" />
<glyph unicode="&#xe3;" horiz-adv-x="574" d="M249 -8Q186 -8 145 3T85 45T65 138Q65 194 78 225T124 270T216 283Q228 283 253 283T310 281T376 280T439 278V324Q439 380 433 412T408 461T354 481T263 486Q240 486 210 484T150 480T101 473V506Q131 511 177
514T277 518Q326 518 360 513T417 496T452 463T469 409T474 330V0H446L443 83H439Q425 42 394 23T324 -2T249 -8ZM248 24Q283 24 316 27T376 43T415 84Q429 114 434 143T439 210V251H226Q176 251 149 243T111 211T100 138Q100 92 112 67T156 33T248 24ZM129 621Q129
656 133 677T151 707T191 716Q219 716 246 708T301 688Q323 680 344 673T390 665Q413 665 419 679T425 727H452Q452 692 448 671T430 641T390 632Q360 632 335 641T280 660Q258 668 237 675T191 683Q169 683 163 669T156 621H129Z" />
<glyph unicode="&#xe4;" horiz-adv-x="574" d="M249 -8Q186 -8 145 3T85 45T65 138Q65 194 78 225T124 270T216 283Q228 283 253 283T310 281T376 280T439 278V324Q439 380 433 412T408 461T354 481T263 486Q240 486 210 484T150 480T101 473V506Q131 511 177
514T277 518Q326 518 360 513T417 496T452 463T469 409T474 330V0H446L443 83H439Q425 42 394 23T324 -2T249 -8ZM248 24Q283 24 316 27T376 43T415 84Q429 114 434 143T439 210V251H226Q176 251 149 243T111 211T100 138Q100 92 112 67T156 33T248 24ZM164 650V711H207V650H164ZM374
650V711H417V650H374Z" />
<glyph unicode="&#xe5;" horiz-adv-x="574" d="M249 -8Q186 -8 145 3T85 45T65 138Q65 194 78 225T124 270T216 283Q228 283 253 283T310 281T376 280T439 278V324Q439 380 433 412T408 461T354 481T263 486Q240 486 210 484T150 480T101 473V506Q131 511 177
514T277 518Q326 518 360 513T417 496T452 463T469 409T474 330V0H446L443 83H439Q425 42 394 23T324 -2T249 -8ZM248 24Q283 24 316 27T376 43T415 84Q429 114 434 143T439 210V251H226Q176 251 149 243T111 211T100 138Q100 92 112 67T156 33T248 24ZM290 592Q250
592 228 597T195 612T181 641T178 685Q178 711 181 729T194 758T227 774T290 779Q330 779 353 774T386 758T400 729T403 685Q403 659 400 641T387 613T353 597T290 592ZM290 620Q330 620 347 625T367 645T371 685Q371 711 368 725T347 746T290 752Q251 752 234
746T214 726T210 685Q210 660 213 646T234 626T290 620Z" />
<glyph unicode="&#xe6;" horiz-adv-x="926" d="M249 -8Q202 -8 167 -2T110 19T76 63T65 138Q65 192 78 222T124 266T216 279Q253 279 290 279T365 279T439 279V324Q439 380 433 412T408 461T354 481T263 486Q240 486 210 484T150 480T101 473V506Q131 511 177
514T277 518Q360 518 402 503T460 446Q480 485 525 501T658 518Q713 518 748 511T804 485T835 438T848 364T851 260V247H474Q474 180 480 136T504 68T559 34T660 24Q687 24 718 26T778 31T831 38V5Q812 1 783 -2T720 -6T655 -8Q592 -8 552 1T489 32T454 93Q437
47 404 26T331 -2T249 -8ZM248 24Q283 24 316 27T376 44T416 87Q429 115 434 144T439 210V247H226Q176 247 149 240T111 209T100 138Q100 92 112 67T156 33T248 24ZM816 261Q817 335 812 379T789 447T740 478T655 486Q594 486 558 479T503 450T480 388T474 279H832L816
261Z" />
<glyph unicode="&#xe7;" horiz-adv-x="458" d="M276 -8Q221 -8 185 1T126 29T93 79T79 153T75 254Q75 318 80 363T98 438T133 486T189 510T271 518Q304 518 340 515T401 507V474Q375 479 341 482T278 486Q224 486 191 476T140 441T116 371T110 256Q110 183 116
137T140 67T192 33T281 24Q313 24 348 28T406 37V4Q383 -1 347 -4T276 -8ZM207 -190V-185L267 18H293V13L247 -190H207Z" />
<glyph unicode="&#xe8;" horiz-adv-x="562" d="M291 -8Q234 -8 196 -1T133 23T97 71T80 146T75 254Q75 329 80 379T105 460T170 504T294 518Q349 518 384 510T440 485T471 437T484 362T487 256V243H110Q110 177 116 134T140 67T195 34T296 24Q323 24 354 26T414
31T467 38V5Q448 1 419 -2T356 -6T291 -8ZM452 255V296Q452 360 445 398T419 455T370 480T291 486Q230 486 194 479T139 449T116 386T110 275H472L452 255ZM307 606L181 738V743H227L334 611V606H307Z" />
<glyph unicode="&#xe9;" horiz-adv-x="562" d="M291 -8Q234 -8 196 -1T133 23T97 71T80 146T75 254Q75 329 80 379T105 460T170 504T294 518Q349 518 384 510T440 485T471 437T484 362T487 256V243H110Q110 177 116 134T140 67T195 34T296 24Q323 24 354 26T414
31T467 38V5Q448 1 419 -2T356 -6T291 -8ZM452 255V296Q452 360 445 398T419 455T370 480T291 486Q230 486 194 479T139 449T116 386T110 275H472L452 255ZM231 606V611L338 744H384V739L258 606H231Z" />
<glyph unicode="&#xea;" horiz-adv-x="562" d="M291 -8Q234 -8 196 -1T133 23T97 71T80 146T75 254Q75 329 80 379T105 460T170 504T294 518Q349 518 384 510T440 485T471 437T484 362T487 256V243H110Q110 177 116 134T140 67T195 34T296 24Q323 24 354 26T414
31T467 38V5Q448 1 419 -2T356 -6T291 -8ZM452 255V296Q452 360 445 398T419 455T370 480T291 486Q230 486 194 479T139 449T116 386T110 275H472L452 255ZM156 606V611L263 744H309L416 611V606H389L286 714L183 606H156Z" />
<glyph unicode="&#xeb;" horiz-adv-x="562" d="M291 -8Q234 -8 196 -1T133 23T97 71T80 146T75 254Q75 329 80 379T105 460T170 504T294 518Q349 518 384 510T440 485T471 437T484 362T487 256V243H110Q110 177 116 134T140 67T195 34T296 24Q323 24 354 26T414
31T467 38V5Q448 1 419 -2T356 -6T291 -8ZM452 255V296Q452 360 445 398T419 455T370 480T291 486Q230 486 194 479T139 449T116 386T110 275H472L452 255ZM159 650V711H202V650H159ZM369 650V711H412V650H369Z" />
<glyph unicode="&#xec;" horiz-adv-x="235" d="M100 0V510H135V0H100ZM139 606L13 738V743H59L166 611V606H139Z" />
<glyph unicode="&#xed;" horiz-adv-x="235" d="M100 0V510H135V0H100ZM63 606V611L170 744H216V739L90 606H63Z" />
<glyph unicode="&#xee;" horiz-adv-x="235" d="M100 0V510H135V0H100ZM244 606V611L351 744H397L504 611V606H477L374 714L271 606H244Z" />
<glyph unicode="&#xef;" horiz-adv-x="235" d="M100 0V510H135V0H100ZM247 650V711H290V650H247ZM457 650V711H500V650H457Z" />
<glyph unicode="&#xf0;" horiz-adv-x="580" d="M290 -8Q229 -8 190 -2T127 21T92 68T78 143T75 254Q75 335 80 387T106 467T170 507T290 518Q341 518 377 509T439 482L445 484Q429 533 409 572T365 642L243 621V653L342 670Q317 699 297 716T268 739V743H311Q318
739 337 723T380 677L480 695V663L401 649Q431 606 458 542T496 410Q500 383 502 358T504 312T505 279Q505 207 503 157T490 75T457 24T394 -1T290 -8ZM290 24Q358 24 395 33T447 66T466 135T470 254Q470 312 467 355T448 428T395 471T290 486Q223 486 186 477T133
444T114 373T110 254Q110 181 113 136T132 66T185 33T290 24Z" />
<glyph unicode="&#xf1;" horiz-adv-x="604" d="M100 0V510H128L131 427H135Q143 451 161 471T216 505T317 518Q378 518 415 507T471 473T497 412T504 320V0H469V315Q469 371 463 404T440 456T392 480T310 486Q244 486 208 469T157 422T138 351T135 264V0H100ZM140
621Q140 656 144 677T162 707T202 716Q230 716 257 708T312 688Q334 680 355 673T401 665Q424 665 430 679T436 727H463Q463 692 459 671T441 641T401 632Q371 632 346 641T291 660Q269 668 248 675T202 683Q180 683 174 669T167 621H140Z" />
<glyph unicode="&#xf2;" horiz-adv-x="580" d="M290 -8Q229 -8 190 -2T127 21T92 68T78 143T75 254Q75 319 78 365T92 441T126 487T189 511T290 518Q351 518 390 511T453 488T488 441T502 365T505 254Q505 189 502 144T488 68T454 22T391 -1T290 -8ZM290 24Q358
24 395 33T447 66T466 135T470 254Q470 327 467 373T448 443T395 477T290 486Q223 486 186 477T133 444T114 373T110 254Q110 181 113 136T132 66T185 33T290 24ZM311 606L185 738V743H231L338 611V606H311Z" />
<glyph unicode="&#xf3;" horiz-adv-x="580" d="M290 -8Q229 -8 190 -2T127 21T92 68T78 143T75 254Q75 319 78 365T92 441T126 487T189 511T290 518Q351 518 390 511T453 488T488 441T502 365T505 254Q505 189 502 144T488 68T454 22T391 -1T290 -8ZM290 24Q358
24 395 33T447 66T466 135T470 254Q470 327 467 373T448 443T395 477T290 486Q223 486 186 477T133 444T114 373T110 254Q110 181 113 136T132 66T185 33T290 24ZM235 606V611L342 744H388V739L262 606H235Z" />
<glyph unicode="&#xf4;" horiz-adv-x="580" d="M290 -8Q229 -8 190 -2T127 21T92 68T78 143T75 254Q75 319 78 365T92 441T126 487T189 511T290 518Q351 518 390 511T453 488T488 441T502 365T505 254Q505 189 502 144T488 68T454 22T391 -1T290 -8ZM290 24Q358
24 395 33T447 66T466 135T470 254Q470 327 467 373T448 443T395 477T290 486Q223 486 186 477T133 444T114 373T110 254Q110 181 113 136T132 66T185 33T290 24ZM160 606V611L267 744H313L420 611V606H393L290 714L187 606H160Z" />
<glyph unicode="&#xf5;" horiz-adv-x="580" d="M290 -8Q229 -8 190 -2T127 21T92 68T78 143T75 254Q75 319 78 365T92 441T126 487T189 511T290 518Q351 518 390 511T453 488T488 441T502 365T505 254Q505 189 502 144T488 68T454 22T391 -1T290 -8ZM290 24Q358
24 395 33T447 66T466 135T470 254Q470 327 467 373T448 443T395 477T290 486Q223 486 186 477T133 444T114 373T110 254Q110 181 113 136T132 66T185 33T290 24ZM128 621Q128 656 132 677T150 707T190 716Q218 716 245 708T300 688Q322 680 343 673T389 665Q412
665 418 679T424 727H451Q451 692 447 671T429 641T389 632Q359 632 334 641T279 660Q257 668 236 675T190 683Q168 683 162 669T155 621H128Z" />
<glyph unicode="&#xf6;" horiz-adv-x="580" d="M290 -8Q229 -8 190 -2T127 21T92 68T78 143T75 254Q75 319 78 365T92 441T126 487T189 511T290 518Q351 518 390 511T453 488T488 441T502 365T505 254Q505 189 502 144T488 68T454 22T391 -1T290 -8ZM290 24Q358
24 395 33T447 66T466 135T470 254Q470 327 467 373T448 443T395 477T290 486Q223 486 186 477T133 444T114 373T110 254Q110 181 113 136T132 66T185 33T290 24ZM163 650V711H206V650H163ZM373 650V711H416V650H373Z" />
<glyph unicode="&#xf7;" horiz-adv-x="540" d="M70 237V269H470V237H70ZM248 32V93H292V32H248ZM248 413V474H292V413H248Z" />
<glyph unicode="&#xf8;" horiz-adv-x="580" d="M76 -55L466 565H504L113 -55H76ZM290 -8Q229 -8 190 -2T127 21T92 68T78 143T75 254Q75 319 78 365T92 441T126 487T189 511T290 518Q351 518 390 511T453 488T488 441T502 365T505 254Q505 189 502 144T488 68T454
22T391 -1T290 -8ZM290 24Q358 24 395 33T447 66T466 135T470 254Q470 327 467 373T448 443T395 477T290 486Q223 486 186 477T133 444T114 373T110 254Q110 181 113 136T132 66T185 33T290 24Z" />
<glyph unicode="&#xf9;" horiz-adv-x="604" d="M287 -8Q226 -8 189 3T133 37T107 98T100 190V510H135V195Q135 140 141 106T164 54T212 30T294 24Q360 24 396 41T447 88T466 159T469 246V510H504V0H476L473 83H469Q461 59 443 39T388 5T287 -8ZM323 606L197 738V743H243L350
611V606H323Z" />
<glyph unicode="&#xfa;" horiz-adv-x="604" d="M287 -8Q226 -8 189 3T133 37T107 98T100 190V510H135V195Q135 140 141 106T164 54T212 30T294 24Q360 24 396 41T447 88T466 159T469 246V510H504V0H476L473 83H469Q461 59 443 39T388 5T287 -8ZM247 606V611L354
744H400V739L274 606H247Z" />
<glyph unicode="&#xfb;" horiz-adv-x="604" d="M287 -8Q226 -8 189 3T133 37T107 98T100 190V510H135V195Q135 140 141 106T164 54T212 30T294 24Q360 24 396 41T447 88T466 159T469 246V510H504V0H476L473 83H469Q461 59 443 39T388 5T287 -8ZM172 606V611L279
744H325L432 611V606H405L302 714L199 606H172Z" />
<glyph unicode="&#xfc;" horiz-adv-x="604" d="M287 -8Q226 -8 189 3T133 37T107 98T100 190V510H135V195Q135 140 141 106T164 54T212 30T294 24Q360 24 396 41T447 88T466 159T469 246V510H504V0H476L473 83H469Q461 59 443 39T388 5T287 -8ZM175 650V711H218V650H175ZM385
650V711H428V650H385Z" />
<glyph unicode="&#xfd;" horiz-adv-x="604" d="M284 -206Q255 -206 224 -205T164 -203T114 -199V-166Q141 -168 170 -170T227 -173T279 -174Q344 -174 382 -161T439 -121T463 -52T469 48V75H465Q459 57 442 38T388 5T287 -8Q226 -8 189 3T133 37T107 98T100 190V510H135V195Q135
140 141 106T164 54T212 30T294 24Q360 24 396 41T447 88T466 159T469 246V510H504V67Q504 -9 496 -61T464 -145T398 -191T284 -206ZM247 606V611L354 744H400V739L274 606H247Z" />
<glyph unicode="&#xfe;" horiz-adv-x="596" d="M100 -190V743H135V436H139Q151 466 175 484T235 510T320 518Q384 518 423 507T484 467T513 387T521 255Q521 175 513 124T484 44T424 4T320 -8Q247 -8 202 10T139 74H135V-190H100ZM310 24Q367 24 402 32T455 63T479
133T486 255Q486 331 480 377T455 446T402 478T310 486Q244 486 204 467T147 399Q138 371 137 336T135 255Q135 209 136 174T145 119Q163 66 203 45T310 24Z" />
<glyph unicode="&#xff;" horiz-adv-x="604" d="M284 -206Q255 -206 224 -205T164 -203T114 -199V-166Q141 -168 170 -170T227 -173T279 -174Q344 -174 382 -161T439 -121T463 -52T469 48V75H465Q459 57 442 38T388 5T287 -8Q226 -8 189 3T133 37T107 98T100 190V510H135V195Q135
140 141 106T164 54T212 30T294 24Q360 24 396 41T447 88T466 159T469 246V510H504V67Q504 -9 496 -61T464 -145T398 -191T284 -206ZM175 650V711H218V650H175ZM385 650V711H428V650H385Z" />
<glyph unicode="&#x2013;" horiz-adv-x="470" d="M65 287V321H405V287H65Z" />
<glyph unicode="&#x2014;" horiz-adv-x="871" d="M65 287V321H806V287H65Z" />
<glyph unicode="&#x2018;" horiz-adv-x="176" d="M64 522V597Q64 624 67 641T79 669T103 684T142 688V667Q120 667 109 662T95 643T92 604V587H112V522H64Z" />
<glyph unicode="&#x2019;" horiz-adv-x="176" d="M34 522V543Q57 543 67 548T81 568T84 606V623H64V688H112V613Q112 586 109 569T97 541T73 526T34 522Z" />
<glyph unicode="&#x201a;" horiz-adv-x="176" d="M34 -101V-80Q57 -80 67 -75T81 -55T84 -17V0H64V65H112V-10Q112 -37 109 -54T97 -82T73 -97T34 -101Z" />
<glyph unicode="&#x201c;" horiz-adv-x="302" d="M190 522V597Q190 624 193 641T205 669T229 684T268 688V667Q246 667 235 662T221 643T218 604V587H238V522H190ZM64 522V597Q64 624 67 641T79 669T103 684T142 688V667Q120 667 109 662T95 643T92 604V587H112V522H64Z" />
<glyph unicode="&#x201d;" horiz-adv-x="302" d="M160 522V543Q183 543 193 548T207 568T210 606V623H190V688H238V613Q238 586 235 569T223 541T199 526T160 522ZM34 522V543Q57 543 67 548T81 568T84 606V623H64V688H112V613Q112 586 109 569T97 541T73 526T34 522Z" />
<glyph unicode="&#x201e;" horiz-adv-x="302" d="M160 -101V-80Q183 -80 193 -75T207 -55T210 -17V0H190V65H238V-10Q238 -37 235 -54T223 -82T199 -97T160 -101ZM34 -101V-80Q57 -80 67 -75T81 -55T84 -17V0H64V65H112V-10Q112 -37 109 -54T97 -82T73 -97T34 -101Z" />
<glyph unicode="&#x2022;" horiz-adv-x="355" d="M176 241Q140 241 120 244T90 258T78 289T75 342Q75 376 77 396T89 427T119 442T176 446Q214 446 235 442T265 428T277 397T280 342Q280 309 278 289T266 259T235 245T176 241Z" />
<glyph unicode="&#x2039;" horiz-adv-x="303" d="M192 99L60 304L192 510H223L104 304L223 99H192Z" />
<glyph unicode="&#x203a;" horiz-adv-x="303" d="M80 99L199 304L80 510H111L243 304L111 99H80Z" />
</font>
</defs>
</svg>
