<?xml version="1.0" standalone="no"?>
<!DOCTYPE svg PUBLIC "-//W3C//DTD SVG 1.1//EN" "http://www.w3.org/Graphics/SVG/1.1/DTD/svg11.dtd">
<svg xmlns="http://www.w3.org/2000/svg">
<defs >
<font id="PTSerif" horiz-adv-x="553" ><font-face
    font-family="PT Serif"
    units-per-em="1000"
    panose-1="2 10 6 3 4 5 5 9 2 4"
    ascent="1039"
    descent="-286"
    alphabetic="0" />
<glyph unicode=" " glyph-name="space" horiz-adv-x="243" />
<glyph unicode="!" glyph-name="exclam" horiz-adv-x="327" d="M146 218L150 394L210 690Q234 701 260 701Q286 701 306 690L240 394L172 218H146ZM68 57Q68 87 87 105T136 123Q167 123 186 105T205 57Q205 28 186 10T136 -8Q106 -8 87 10T68 57Z" />
<glyph unicode="&quot;" glyph-name="quotedbl" horiz-adv-x="341" d="M209 670Q217 683 229 691T258 700Q289 700 294 670L230 504H210L209 670ZM89 670Q97 683 109 691T138 700Q169 700 174 670L110 504H90L89 670Z" />
<glyph unicode="#" glyph-name="numbersign" horiz-adv-x="524" d="M307 233H164L86 58H33L112 233H31L56 279H132L200 429H123L147 475H220L296 642H348L273 475H415L491 642H543L467 475H547L520 429H447L379 279H456L428 233H359L280 58H228L307 233ZM185 279H327L395
429H253L185 279Z" />
<glyph unicode="$" glyph-name="dollar" horiz-adv-x="524" d="M188 -12Q162 -11 136 -5T86 9T45 27T17 44Q25 77 36 107T60 157H86L126 60Q145 41 199 40L260 321Q234 338 209 355T165 395T133 446T120 514Q120 550 134 584T175 646T244 690T341 711L352 760H404L393
711Q442 709 477 700T537 679Q528 646 512 624T481 586H455L419 654Q411 655 402 656T383 659L329 402Q353 386 377 369T421 327T453 271T465 196Q465 157 450 122T405 60T334 14T240 -10L228 -70H176L188 -12ZM213 543Q213 502 233 477T283 431L332 659Q278 655
246 625T213 543ZM371 167Q371 209 352 238T303 290L250 43Q274 47 295 57T334 82T361 119T371 167Z" />
<glyph unicode="%" glyph-name="percent" horiz-adv-x="782" d="M706 710L741 679L76 -7L42 25L706 710ZM63 500Q63 546 81 585T129 652T198 696T279 712Q348 712 385 676T422 583Q422 531 403 492T353 426T284 386T207 372Q177 372 151 381T105 408T74 448T63
500ZM146 499Q146 481 149 465T161 437T183 417T214 409Q236 409 258 420T299 454T328 512T339 595Q339 610 336 624T324 649T303 667T270 674Q248 674 226 661T186 624T157 569T146 499ZM354 117Q354 163 372 202T420 269T489 313T570 329Q639 329 676 293T713
200Q713 148 694 109T644 43T575 3T498 -11Q468 -11 442 -2T396 25T365 65T354 117ZM437 116Q437 98 440 82T452 54T474 34T505 26Q527 26 549 37T590 71T619 129T630 212Q630 227 627 241T615 266T594 284T561 291Q539 291 517 278T477 241T448 186T437 116Z"
/>
<glyph unicode="&amp;" glyph-name="ampersand" horiz-adv-x="872" d="M480 123Q455 150 428 186T375 261T329 334T298 392Q245 350 210 297T174 170Q175 113 211 77T310 40Q355 40 398 60T480 123ZM317 564Q317 530 331 495T365 431Q386 446 405 464T441 502T466
546T476 595Q476 630 462 650T414 669Q392 670 374 661T344 638T324 604T317 564ZM611 0Q592 14 565 34T507 92Q489 73 464 55T408 21T339 -3T262 -12Q213 -12 177 1T116 36T79 88T67 151Q67 202 92 245T151 324T221 385T279 423Q257 455 249 488T241 556Q241 588
256 616T296 666T354 699T423 712Q550 712 550 611Q550 577 534 547T492 492T436 445T380 406Q410 355 452 301T543 193Q553 204 571 230T607 291T640 367T662 450Q630 456 608 474L613 500H816L810 474Q778 457 739 450Q717 391 693 343T647 259T605 197T575 159Q607
128 637 102T708 49L759 25L753 0H611Z" />
<glyph unicode="&apos;" glyph-name="quotesingle" horiz-adv-x="221" d="M89 670Q97 683 109 691T138 700Q169 700 174 670L110 504H90L89 670Z" />
<glyph unicode="(" glyph-name="parenleft" horiz-adv-x="343" d="M220 -210Q134 -136 98 -56T61 117Q61 229 94 320T179 483T294 609T417 702L434 684Q385 642 334 585T241 459T173 306T147 129Q146 39 168 -39T249 -190L220 -210Z" />
<glyph unicode=")" glyph-name="parenright" horiz-adv-x="343" d="M-80 -190Q-36 -154 14 -98T107 30T178 191T207 379Q207 422 203 459T187 532T155 605T104 684L130 702Q216 624 253 544T291 369Q291 265 260 176T179 13T67 -116T-60 -210L-80 -190Z" />
<glyph unicode="*" glyph-name="asterisk" horiz-adv-x="465" d="M145 616Q142 623 144 633T152 654T166 673T184 683L284 596Q284 577 270 570L145 616ZM183 444Q175 445 167 452T153 470T144 492T144 511L269 554Q284 545 284 530L183 444ZM354 389Q349 382
339 380T317 377Q305 377 294 379T278 388L301 518Q317 526 333 518L354 389ZM485 511Q489 504 487 493T478 472T464 453T447 444L349 528Q349 544 362 553L485 511ZM448 683Q456 682 464 675T478 657T486 635T486 615L362 568Q348 578 348 594L448 683ZM277 737Q281
744 291 747T314 750Q326 750 337 747T353 737L331 607Q316 597 300 607L277 737Z" />
<glyph unicode="+" glyph-name="plus" horiz-adv-x="524" d="M37 370H235V580H288V370H487V317H288V102H235V317H37V370Z" />
<glyph unicode="," glyph-name="comma" horiz-adv-x="283" d="M-36 -149Q-15 -142 5 -128T41 -95T68 -56T82 -13Q72 -2 55 9T23 25Q22 44 30 62T50 94T75 116T100 126Q134 121 151 102T168 45Q168 7 152 -29T109 -95T48 -147T-23 -179L-36 -149Z" />
<glyph unicode="-" glyph-name="hyphen" horiz-adv-x="425" d="M85 313H367L354 250H71L85 313Z" />
<glyph unicode="." glyph-name="period" horiz-adv-x="271" d="M29 57Q29 87 48 105T97 123Q128 123 147 105T166 57Q166 28 147 10T97 -8Q67 -8 48 10T29 57Z" />
<glyph unicode="/" glyph-name="slash" horiz-adv-x="344" d="M327 712L369 694L4 -130L-37 -111L327 712Z" />
<glyph unicode="0" glyph-name="zero" horiz-adv-x="524" d="M19 203Q19 262 28 323T54 440T98 546T160 633T240 691T338 712Q397 712 433 691T490 637T518 567T525 499Q525 410 505 320T446 155T346 35T206 -12Q147 -12 110 9T53 63T26 133T19 203ZM115 199Q115
170 119 140T135 86T165 45T213 29Q267 29 307 72T375 183T415 335T429 500Q429 530 425 560T409 614T379 654T331 671Q276 670 236 626T168 512T128 360T115 199Z" />
<glyph unicode="1" glyph-name="one" horiz-adv-x="524" d="M378 0H86L92 29Q119 41 146 49T202 63L306 554L325 613Q296 602 263 598T198 594V618Q247 633 301 655T404 712H429L292 63Q341 52 384 29L378 0Z" />
<glyph unicode="2" glyph-name="two" horiz-adv-x="524" d="M182 505H157Q152 534 149 573T146 647Q188 676 234 694T337 712Q387 712 420 701T474 671T504 626T513 571Q513 513 479 452T392 331T277 217T161 119L111 80V76L167 82H339L412 194H437Q436 170 433
144T426 91T416 42T407 0H-6L1 32Q31 56 73 92T161 171T254 265T336 366T396 470T419 570Q419 610 395 635T322 660Q280 660 246 648L182 505Z" />
<glyph unicode="3" glyph-name="three" horiz-adv-x="524" d="M204 35Q245 35 277 51T330 95T363 156T373 227Q374 288 341 313T246 339H186L187 364L399 591L444 626V630L390 624H228L167 522H142Q143 565 146 614T158 700H544L543 669L337 446L278 402V400L313
407Q394 400 431 359T469 245Q469 194 453 147T401 65T311 9T178 -12Q155 -12 130 -9T81 2T38 18T6 39L52 129H72Q77 122 85 111T102 88T119 64T134 43Q144 41 161 38T204 35Z" />
<glyph unicode="4" glyph-name="four" horiz-adv-x="524" d="M415 0H156L161 29Q187 37 211 43T259 53L288 193H-17L-12 216L463 712H490L391 245H519L507 193H380L350 53Q367 49 385 43T420 29L415 0ZM354 502L383 574H380L327 502L110 271L63 238L136 245H300L354 502Z" />
<glyph unicode="5" glyph-name="five" horiz-adv-x="524" d="M541 755H566Q563 740 558 722T546 685T532 649T518 621H271L207 428H256Q352 428 404 385T457 259Q457 199 437 149T381 63T293 8T177 -12Q153 -12 130 -9T84 2T45 18T15 39L62 129H82Q87 122 93 111T107
88T121 64T134 43Q144 41 156 38T186 35Q234 35 269 51T326 96T360 160T371 234Q371 300 328 328T206 354L135 353L248 700H487L541 755Z" />
<glyph unicode="6" glyph-name="six" horiz-adv-x="524" d="M500 264Q500 217 484 168T433 79T347 14T224 -12Q189 -12 156 -3T96 30T55 90T39 183Q39 264 72 347T167 504T317 634T517 718L521 688Q389 640 300 556T165 344Q189 373 233 394T332 416Q419 416 459
374T500 264ZM404 255Q404 308 380 336T295 364Q250 364 212 341T151 288Q148 280 145 267T140 239T137 212T135 191Q135 160 139 132T156 82T188 47T240 34Q283 34 314 56T365 112T394 184T404 255Z" />
<glyph unicode="7" glyph-name="seven" horiz-adv-x="524" d="M129 521H104Q106 564 110 614T121 700H535V671Q464 585 411 505T316 343T240 178T173 0H73Q135 143 217 288T410 580L450 628L397 623H190L129 521Z" />
<glyph unicode="8" glyph-name="eight" horiz-adv-x="524" d="M12 136Q12 210 64 266T217 351Q168 386 144 424T119 511Q119 553 134 590T179 654T250 696T345 712Q430 712 471 675T512 576Q512 546 500 517T464 462T408 415T335 380Q363 361 385 343T422 303T446
255T455 195Q455 157 439 120T391 53T311 6T198 -12Q110 -12 61 28T12 136ZM369 180Q369 206 359 227T332 266T291 302T239 336Q195 313 168 287T125 235T104 185T98 141Q98 93 128 64T209 34Q252 34 282 47T332 82T360 129T369 180ZM205 528Q205 508 214 489T239
453T273 420T314 393Q374 438 400 483T426 570Q427 610 405 637T330 665Q300 665 277 654T237 624T213 580T205 528Z" />
<glyph unicode="9" glyph-name="nine" horiz-adv-x="524" d="M61 442Q61 489 77 538T128 627T213 692T336 718Q371 718 404 709T464 676T506 616T522 523Q522 442 489 359T394 202T243 72T43 -12L39 17Q172 65 261 149T395 361Q371 332 327 311T229 289Q141 289
101 331T61 442ZM157 451Q157 398 181 370T265 341Q310 341 348 364T409 418Q412 426 415 439T420 467T424 494T426 515Q426 546 421 574T404 624T372 658T320 671Q277 671 246 649T196 593T167 522T157 451Z" />
<glyph unicode=":" glyph-name="colon" horiz-adv-x="323" d="M126 442Q126 472 145 490T194 508Q225 508 244 490T263 442Q263 413 244 395T194 377Q164 377 145 395T126 442ZM76 57Q76 87 95 105T144 123Q175 123 194 105T213 57Q213 28 194 10T144 -8Q114 -8
95 10T76 57Z" />
<glyph unicode=";" glyph-name="semicolon" horiz-adv-x="312" d="M121 442Q121 472 140 490T189 508Q220 508 239 490T258 442Q258 413 239 395T189 377Q159 377 140 395T121 442ZM-3 -149Q18 -142 38 -128T74 -95T101 -56T115 -13Q105 -2 88 9T56 25Q55 44 63
62T83 94T108 116T133 126Q167 121 184 102T201 45Q201 7 185 -29T142 -95T81 -147T10 -179L-3 -149Z" />
<glyph unicode="&lt;" glyph-name="less" horiz-adv-x="524" d="M44 324V355L429 590L454 546L204 395L118 355L203 324L468 168L428 103L44 324Z" />
<glyph unicode="=" glyph-name="equal" horiz-adv-x="524" d="M269 450H719V397H269V450ZM269 546H719V493H269V546Z" />
<glyph unicode="&gt;" glyph-name="greater" horiz-adv-x="524" d="M480 369V338L95 103L71 147L321 298L406 338L322 369L56 525L96 590L480 369Z" />
<glyph unicode="?" glyph-name="question" horiz-adv-x="494" d="M194 519H169Q167 533 165 551T160 589T158 629T160 670Q203 693 246 702T341 712Q421 712 464 677T507 578Q507 528 486 492T433 426T363 371T291 318T232 257T202 180H182Q178 232 193 271T234
341T290 399T347 452T392 507T411 573Q410 618 385 639T318 660Q286 660 265 655T233 642L194 519ZM118 57Q118 87 137 105T186 123Q217 123 236 105T255 57Q255 28 236 10T186 -8Q156 -8 137 10T118 57Z" />
<glyph unicode="@" glyph-name="at" horiz-adv-x="1007" d="M655 474Q692 491 730 490L679 204Q673 171 671 144T670 98T681 68T707 57Q740 57 775 75T839 129T887 214T906 326Q906 402 878 464T799 569T681 636T536 660Q444 660 371 628T245 539T165 406T137
242Q137 153 166 85T247 -31T372 -103T532 -128Q561 -128 598 -121T665 -100L681 -144Q646 -164 604 -172T511 -180Q425 -180 347 -154T210 -76T115 54T80 236Q80 345 116 433T214 583T361 678T541 712Q631 712 708 686T843 610T931 489T963 326Q963 261 941 203T881
101T792 31T687 5Q657 5 636 14T604 45T593 101T603 183H599Q588 151 569 120T524 63T471 21T413 5Q353 5 321 46T288 157Q288 221 309 282T367 391T452 468T553 497Q589 497 610 491T655 474ZM638 426Q622 436 606 441T563 445Q525 446 491 420T432 352T393 263T378
169Q378 121 393 94T450 67Q469 67 491 85T534 134T576 201T613 277L638 426Z" />
<glyph unicode="A" glyph-name="A" horiz-adv-x="674" d="M176 0H-49L-43 29Q-4 45 35 53L430 712H456L569 53Q587 49 605 44T639 29L634 0H380L385 29Q430 46 473 53L443 236H208L101 53Q144 47 181 29L176 0ZM237 288H435L403 500L401 586H399L359 498L237 288Z" />
<glyph unicode="B" glyph-name="B" horiz-adv-x="605" d="M-20 0L-15 29Q30 48 73 53L198 646Q178 650 159 656T121 671L128 700H234Q271 700 308 703T401 706Q441 706 477 699T540 677T583 638T599 577Q599 542 589 511T556 453T501 406T422 374V370Q445 368
469 360T512 337T544 298T556 242Q556 189 536 144T477 66T377 13T237 -6Q202 -6 160 -3T76 0H-20ZM256 46Q297 45 334 57T399 92T443 148T460 225Q460 258 449 279T416 311T364 326T297 330H221L163 54Q176 50 195 48T256 46ZM282 382Q299 382 322 383T363 387Q442
415 472 462T503 566Q503 605 475 629T381 654Q349 654 327 653T289 649L232 382H282Z" />
<glyph unicode="C" glyph-name="C" horiz-adv-x="635" d="M557 182H582Q582 154 577 112T560 29Q540 18 517 10T469 -3T420 -10T375 -12Q290 -12 231 12T136 75T83 162T66 258Q66 360 95 443T177 586T307 679T480 712Q546 712 592 703T669 678Q666 662 661 641T648
595T632 548T617 506H591L570 650Q557 655 531 657T479 660Q413 660 357 635T260 559T196 434T173 260Q173 198 194 156T248 87T319 50T391 40Q425 39 448 45T483 58L557 182Z" />
<glyph unicode="D" glyph-name="D" horiz-adv-x="702" d="M-20 0L-15 29Q26 46 73 53L198 646Q176 651 157 657T121 671L128 700H229Q246 700 269 701T317 703T365 706T403 708Q483 708 539 689T629 638T679 561T695 465Q695 414 687 359T658 251T605 151T521
69T401 12T242 -9Q227 -9 207 -8T163 -5T117 -2T75 0H-20ZM383 656Q357 656 330 655T289 652L161 46Q171 45 185 45T214 44T240 43T258 43Q352 42 415 80T517 179T572 317T588 471Q588 510 579 544T547 602T485 641T383 656Z" />
<glyph unicode="E" glyph-name="E" horiz-adv-x="572" d="M601 700Q593 660 582 619T556 538H530L513 648H294L239 383H401L456 457H481Q473 407 463 357T438 255H413L390 331H227L169 52H398L473 172H498Q496 133 490 89T473 0H-20L-15 29Q26 46 73 53L198 646Q178
651 159 657T121 671L128 700H601Z" />
<glyph unicode="F" glyph-name="F" horiz-adv-x="535" d="M159 53Q201 47 239 29L234 0H-20L-15 29Q3 37 23 43T63 53L188 646Q168 652 151 658T121 671L128 700H597Q588 661 577 620T551 538H525L508 648H284L224 363H399L453 437H478Q473 392 462 337T436 235H411L389
312H213L159 53Z" />
<glyph unicode="G" glyph-name="G" horiz-adv-x="679" d="M571 48Q549 35 521 24T464 5T405 -7T350 -12Q217 -12 142 58T66 259Q66 360 94 443T177 586T308 679T484 712Q550 712 597 704T675 678Q672 663 667 641T654 595T638 548T623 506H597L576 650Q558 655
531 657T479 660Q402 660 345 629T249 543T192 417T173 261Q173 190 193 147T242 79T305 47T367 40Q407 39 441 52T488 75L532 277Q506 279 484 286T441 301L448 330H693L687 301Q676 294 660 288T619 277L571 48Z" />
<glyph unicode="H" glyph-name="H" horiz-adv-x="719" d="M233 0H-20L-15 29Q7 39 29 44T73 53L198 646Q153 655 121 671L128 700H381L375 671Q358 662 336 656T294 646L239 385H553L609 646Q589 651 572 656T538 671L545 700H798L792 671Q772 661 750 656T705
646L579 53Q624 45 655 29L650 0H397L402 29Q421 37 441 43T483 53L542 333H227L169 53Q187 49 205 43T238 29L233 0Z" />
<glyph unicode="I" glyph-name="I" horiz-adv-x="343" d="M255 0H-1L4 29Q48 47 90 53L215 646Q195 650 177 656T140 671L147 700H403L397 671Q377 663 354 657T311 646L186 53Q206 49 225 43T260 29L255 0Z" />
<glyph unicode="J" glyph-name="J" horiz-adv-x="331" d="M136 700H391L386 671Q366 662 343 656T300 646L182 86Q167 17 142 -28T87 -100T28 -141T-25 -160L-32 -145Q-12 -129 4 -113T35 -72T61 -12T84 75L204 646Q161 656 130 671L136 700Z" />
<glyph unicode="K" glyph-name="K" horiz-adv-x="637" d="M476 700H703L696 671Q678 662 656 656T615 646L356 376Q374 343 397 303T447 220T502 133T559 49L602 25L597 0H476L447 24Q402 93 360 173T281 335H228L169 53Q210 45 238 29L233 0H-20L-15 29Q30 47
73 53L198 646Q176 650 157 656T121 671L128 700H381L375 671Q341 655 294 646L236 369L296 383L536 646Q516 651 500 656T469 671L476 700Z" />
<glyph unicode="L" glyph-name="L" horiz-adv-x="538" d="M128 700H402L395 671Q370 662 345 656T294 646L169 52H398L491 213H517Q515 192 512 165T505 108T495 50T483 0H-20L-15 29Q12 40 33 45T73 53L198 646Q151 655 121 671L128 700Z" />
<glyph unicode="M" glyph-name="M" horiz-adv-x="857" d="M787 0H539L544 29Q566 37 587 42T631 53L725 503L755 620H747L693 513L377 0H351L264 513L253 630H244L218 503L123 53Q141 49 159 43T194 29L188 0H-20L-15 29Q25 46 72 54L197 646Q177 650 157 656T120
671L126 700H334L405 243L417 140H418L470 245L752 700H936L929 671Q890 654 848 646L722 52Q742 48 760 43T792 29L787 0Z" />
<glyph unicode="N" glyph-name="N" horiz-adv-x="723" d="M588 700H801L795 671Q775 657 751 647T705 631L568 -12H514L263 539L242 617H239L229 539L129 64Q147 59 165 50T198 29L192 0H-20L-15 29Q28 55 75 64L197 637Q178 645 161 654T129 672L134 700H300L515
225L545 139H549L565 225L651 631Q611 648 582 671L588 700Z" />
<glyph unicode="O" glyph-name="O" horiz-adv-x="730" d="M66 278Q66 369 93 448T173 585T298 678T463 712Q536 712 586 688T666 625T710 536T724 431Q724 351 702 272T632 129T514 27T344 -12Q272 -12 220 11T133 74T83 166T66 278ZM173 277Q173 222 187 178T227
103T287 56T363 40Q436 39 484 75T562 169T604 296T617 432Q617 483 606 525T571 597T515 643T437 660Q368 660 318 624T236 532T188 408T173 277Z" />
<glyph unicode="P" glyph-name="P" horiz-adv-x="585" d="M169 53Q195 50 217 44T259 29L254 0H-20L-15 29Q8 39 29 44T73 53L198 646Q176 650 157 656T121 671L128 700H218Q258 700 305 704T396 708Q444 708 484 699T553 669T598 618T614 545Q614 486 593 436T531
349T433 291T306 270Q301 270 290 270T265 270T238 272T215 274L169 53ZM370 656Q346 656 328 655T295 651L227 327Q232 326 241 325T261 324T281 323T297 322Q401 322 454 381T507 544Q507 569 502 589T481 625T439 648T370 656Z" />
<glyph unicode="Q" glyph-name="Q" horiz-adv-x="750" d="M742 -115Q694 -151 647 -176T551 -201Q510 -201 469 -186T381 -150T281 -106T165 -66L200 -46Q247 -40 290 -46T375 -64T459 -89T545 -111T637 -119T740 -101L742 -115ZM66 278Q66 369 93 448T173 585T298
678T463 712Q536 712 586 688T666 625T710 536T724 431Q724 351 702 272T632 129T514 27T344 -12Q272 -12 220 11T133 74T83 166T66 278ZM173 277Q173 222 187 178T227 103T287 56T363 40Q436 39 484 75T562 169T604 296T617 432Q617 483 606 525T571 597T515 643T437
660Q368 660 318 624T236 532T188 408T173 277Z" />
<glyph unicode="R" glyph-name="R" horiz-adv-x="627" d="M169 53Q213 45 248 29L243 0H-20L-15 29Q9 39 30 44T73 53L198 646Q174 652 155 658T121 671L128 700H216Q256 700 304 704T397 708Q496 708 544 666T593 545Q593 506 580 470T542 405T482 355T401 322Q430
254 464 187T536 54L583 25L578 0H464L430 28Q409 63 393 97T363 165T339 235T319 310H223L169 53ZM364 656Q341 656 325 655T294 651L232 353H303Q356 352 392 369T451 414T484 479T495 553Q496 607 465 631T364 656Z" />
<glyph unicode="S" glyph-name="S" horiz-adv-x="527" d="M121 69Q132 60 158 50T213 40Q246 39 277 45T333 66T373 105T388 167Q388 208 369 236T320 285T258 326T195 370T147 426T127 507Q127 553 143 590T192 655T272 697T379 712Q440 712 488 703T563 679Q559
662 552 640T536 593T519 547T503 507H477L465 644Q448 652 422 656T364 660Q334 660 308 653T262 632T231 595T220 543Q220 503 239 477T288 429T350 389T413 344T461 284T481 196Q481 149 463 111T410 46T325 3T210 -12Q178 -12 149 -8T95 3T51 18T22 35Q26 53
33 77T50 127T68 175T85 216H111L121 69Z" />
<glyph unicode="T" glyph-name="T" horiz-adv-x="610" d="M401 0H120L125 29Q149 38 172 43T224 53L350 648H197L114 505H88Q89 525 92 550T100 602T108 654T118 700H698Q694 680 688 655T675 604T661 552T646 505H620L599 648H446L320 53Q344 48 365 43T406 29L401 0Z" />
<glyph unicode="U" glyph-name="U" horiz-adv-x="666" d="M112 700H366L360 671Q321 654 279 646L194 249Q183 196 188 159T212 97T262 62T334 51Q415 51 463 96T532 238L617 637Q573 652 545 671L551 700H765L758 671Q741 660 718 651T673 637L588 236Q560 105
490 48T308 -9Q242 -9 197 10T125 62T92 142T97 243L183 646Q163 650 142 656T106 671L112 700Z" />
<glyph unicode="V" glyph-name="V" horiz-adv-x="674" d="M634 646Q611 651 591 657T553 671L560 700H782L776 671Q759 663 741 657T699 646L337 0L282 -12L166 646Q143 651 126 657T95 671L101 700H364L358 671Q340 663 317 657T271 646L344 189L349 109H351L388
191L634 646Z" />
<glyph unicode="W" glyph-name="W" horiz-adv-x="925" d="M887 646Q867 650 846 656T807 671L813 700H1033L1027 671Q1008 661 989 656T950 646L646 0L582 -12L536 532L265 0L203 -12L166 646Q127 655 95 671L101 700H359L353 671Q333 663 312 657T266 646L279
241L276 111H278L339 243L572 700H607L649 243L654 113H656L709 245L887 646Z" />
<glyph unicode="X" glyph-name="X" horiz-adv-x="661" d="M499 700H729L722 671Q704 663 684 657T642 646L404 375L541 53Q587 45 616 29L611 0H345L350 29Q388 47 431 53L330 304L120 52Q140 49 159 45T196 29L190 0H-40L-34 29Q-14 39 6 44T46 53L308 352L184
646Q164 651 146 656T110 671L116 700H382L376 671Q345 657 294 646L383 420L570 646Q551 651 532 656T493 671L499 700Z" />
<glyph unicode="Y" glyph-name="Y" horiz-adv-x="635" d="M520 700H743L736 671Q716 661 696 656T656 646L393 298L341 53Q378 48 411 29L406 0H152L157 29Q197 47 245 53L297 297L168 646Q146 650 128 656T92 671L99 700H363L357 671Q341 665 321 658T275 646L376
352L588 646Q567 651 549 657T514 671L520 700Z" />
<glyph unicode="Z" glyph-name="Z" horiz-adv-x="603" d="M529 192H555Q553 171 550 146T543 96T535 45T525 0H5V51L531 648H240L149 508H123Q124 529 127 554T135 605T143 655T153 700H650V648L124 52H438L529 192Z" />
<glyph unicode="[" glyph-name="bracketleft" horiz-adv-x="307" d="M190 700H379L370 657H266L86 -187H190L182 -230H-7L190 700Z" />
<glyph unicode="\" glyph-name="backslash" horiz-adv-x="382" d="M409 -107L368 -130L-47 690L-5 712L409 -107Z" />
<glyph unicode="]" glyph-name="bracketright" horiz-adv-x="307" d="M131 -230H-57L-48 -187H55L235 657H131L139 700H328L131 -230Z" />
<glyph unicode="^" glyph-name="asciicircum" horiz-adv-x="519" d="M291 711H324L494 434H405L317 585L294 652L261 584L162 434H105L291 711Z" />
<glyph unicode="_" glyph-name="underscore" horiz-adv-x="410" d="M-45 -143H365V-196H-45V-143Z" />
<glyph unicode="`" glyph-name="grave" horiz-adv-x="323" d="M325 593L303 576L137 725V745Q143 750 156 754T186 762T216 766T239 767L325 593Z" />
<glyph unicode="a" glyph-name="a" horiz-adv-x="535" d="M189 50Q216 50 243 75T294 137T337 212T367 277L399 448Q385 458 372 462T336 466Q290 466 253 438T189 364T148 264T133 156Q133 105 145 78T189 50ZM347 196Q334 160 315 123T270 56T213 7T147 -12Q43
-12 43 139Q43 209 63 275T121 394T213 477T337 509Q362 509 377 505T413 491Q453 512 497 512L407 55H480V30Q460 14 432 4T377 -6Q348 -6 336 6T323 33Q323 51 330 92T351 196H347Z" />
<glyph unicode="b" glyph-name="b" horiz-adv-x="526" d="M164 682L94 691V714Q110 720 129 726T167 737T206 746T241 752L262 741L174 324H179Q197 360 218 394T264 454T316 496T373 512Q426 512 457 475T488 360Q488 283 467 216T406 98T312 18T190 -12Q141
-12 99 0T36 30L164 682ZM331 450Q305 450 280 427T234 372T195 304T165 244L127 52Q142 42 164 37T209 31Q248 31 282 58T343 129T384 228T398 341Q399 389 383 419T331 450Z" />
<glyph unicode="c" glyph-name="c" horiz-adv-x="428" d="M382 89Q371 70 354 52T314 20T263 -3T200 -12Q126 -12 83 35T40 163Q40 235 63 298T125 409T218 484T333 512Q371 512 395 506T431 489Q432 478 430 465T422 438T408 414T390 399L322 469Q288 468 255
448T195 391T152 302T136 183Q135 114 163 82T241 50Q262 50 280 56T315 71T344 90T367 108L382 89Z" />
<glyph unicode="d" glyph-name="d" horiz-adv-x="535" d="M191 50Q218 50 245 75T296 137T339 212T369 277L401 448Q386 458 374 461T338 466Q290 465 252 437T188 364T149 264T135 156Q135 105 147 78T191 50ZM349 196Q336 160 316 123T271 56T215 7T149 -12Q45
-12 45 140Q45 211 65 277T123 395T215 478T338 509Q364 509 377 506T410 493L448 682L378 691V716Q393 722 411 727T448 737T488 746T525 752L546 744L409 55H482V30Q462 14 434 4T379 -6Q350 -6 338 6T325 33Q325 51 332 92T353 196H349Z" />
<glyph unicode="e" glyph-name="e" horiz-adv-x="454" d="M392 89Q383 70 366 52T326 20T274 -3T212 -12Q129 -12 85 35T40 167Q40 238 60 301T116 411T203 485T318 512Q366 512 400 488T435 415Q435 344 365 303T137 250Q133 233 132 217T130 186Q130 126 160
88T250 50Q269 50 287 56T322 71T352 90T376 108L392 89ZM287 469Q244 468 207 429T144 293Q241 296 295 326T349 411Q349 432 337 450T287 469Z" />
<glyph unicode="f" glyph-name="f" horiz-adv-x="297" d="M129 450H56V476Q76 487 98 495T141 509L148 544Q161 606 183 646T236 710T302 743T379 752Q396 752 419 748T459 736Q457 714 449 691T420 650L344 712Q326 707 311 701T283 679T257 632T234 550L224
500H335Q340 475 325 450H214L150 43Q139 -28 113 -75T58 -151T0 -194T-43 -212L-52 -190Q-40 -184 -23 -169T10 -127T41 -64T64 24L129 450Z" />
<glyph unicode="g" glyph-name="g" horiz-adv-x="489" d="M280 512Q328 512 358 500T406 474Q415 482 430 490T462 505T497 518T531 529Q534 524 536 514T538 492T534 468T523 445L420 452Q423 443 426 432T429 406Q429 366 413 332T367 274T300 235T218 221Q201
221 191 221T167 225Q158 215 143 202T127 172Q127 155 149 146T204 130T277 114T349 91T405 53T427 -8Q427 -55 401 -92T331 -156T232 -197T119 -212Q73 -212 40 -203T-14 -177T-45 -139T-55 -95Q-55 -67 -43 -43T-9 2T39 42T95 76Q80 84 71 97T61 128Q61 143
71 159T94 191T121 217T142 233Q130 236 118 244T94 265T76 295T69 333Q69 372 85 405T131 461T198 498T280 512ZM165 -169Q196 -169 226 -160T281 -135T321 -94T337 -38Q337 -8 313 8T253 35T181 51T116 67Q69 33 52 -4T35 -73Q34 -118 69 -143T165 -169ZM272
472Q243 472 221 461T182 432T158 388T150 335Q150 297 174 279T227 261Q257 261 278 271T314 300T336 341T343 389Q343 426 326 449T272 472Z" />
<glyph unicode="h" glyph-name="h" horiz-adv-x="543" d="M103 691V714Q118 720 136 726T175 738T214 747T250 752L271 743L181 323H186Q205 363 229 397T279 457T335 497T394 512Q440 512 460 486T481 420Q481 393 476 362T464 302L407 56H481V30Q461 14 433
4T377 -6Q348 -6 337 6T326 32Q326 50 331 72T341 118L377 285Q384 316 389 343T395 395Q395 418 385 434T358 450Q327 450 298 428T244 375T200 311T171 255L118 0H34L171 682L103 691Z" />
<glyph unicode="i" glyph-name="i" horiz-adv-x="277" d="M71 451V476Q86 482 105 488T144 500T182 508T214 512L232 500L138 56H212V30Q191 14 163 4T108 -6Q79 -6 67 7T54 37Q54 57 57 76T65 118L135 441L71 451ZM407 673Q407 699 423 714T465 729Q493 729 509
714T525 673Q525 648 509 634T465 620Q439 620 423 634T407 673Z" />
<glyph unicode="j" glyph-name="j" horiz-adv-x="275" d="M133 442L73 451V476Q104 490 142 501T211 512L231 500L134 43Q119 -28 93 -75T37 -151T-18 -194T-61 -212L-73 -190Q-61 -184 -45 -170T-13 -130T18 -66T45 24L133 442ZM402 673Q402 699 418 714T460
729Q488 729 504 714T520 673Q520 648 504 634T460 620Q434 620 418 634T402 673Z" />
<glyph unicode="k" glyph-name="k" horiz-adv-x="481" d="M299 45Q267 99 245 147T203 238L167 248L120 0H34L170 682L100 691V716Q129 729 170 739T247 752L268 741L174 274H203Q224 287 246 306T289 345T326 383T351 415Q352 422 352 434T353 458T352 482T350
500Q387 513 422 513Q458 513 482 500Q469 467 442 434T384 373T323 321T275 284Q282 265 297 235T331 171T370 107T408 56H471V30Q451 14 428 4T378 -6Q354 -6 335 5T299 45Z" />
<glyph unicode="l" glyph-name="l" horiz-adv-x="277" d="M174 682L103 691V716Q117 722 135 728T174 739T215 748T251 752L271 741L133 56H206V30Q186 14 158 4T102 -6Q73 -6 60 7T46 37Q46 57 49 76T57 118L174 682Z" />
<glyph unicode="m" glyph-name="m" horiz-adv-x="800" d="M633 300Q639 324 644 350T651 393Q650 419 643 434T612 450Q588 450 563 431T516 383T475 320T444 256L383 0H303L366 281Q373 312 378 340T383 400Q383 423 375 436T347 450Q327 450 303 431T256 383T214
320T182 255L129 0H43L136 442L75 451V476Q108 493 146 502T213 512L234 500L190 323H194Q206 351 227 384T277 445T337 493T401 512Q413 512 425 508T446 494T461 465T467 419Q467 397 463 372T452 323Q467 357 490 390T540 451T597 495T660 512Q698 512 717 488T737
422Q737 390 731 362T718 300L653 56H727V30Q707 14 678 4T623 -6Q594 -6 583 7T572 38Q572 67 586 118L633 300Z" />
<glyph unicode="n" glyph-name="n" horiz-adv-x="552" d="M386 285Q393 316 398 342T404 395Q404 418 394 434T360 450Q333 450 305 428T253 375T210 311T180 255L127 0H43L131 442L70 451L72 476Q86 483 103 489T139 501T175 509T208 512L228 500L190 323H195Q214
363 238 397T290 457T348 497T409 512Q451 512 470 486T490 419Q490 397 485 364T473 302L416 56H490V30Q470 14 442 4T386 -6Q357 -6 346 6T335 32Q335 51 340 73T350 119L386 285Z" />
<glyph unicode="o" glyph-name="o" horiz-adv-x="509" d="M41 186Q41 239 57 296T108 402T193 481T312 512Q390 512 429 464T469 322Q469 256 450 196T397 89T315 16T209 -12Q132 -12 87 37T41 186ZM292 469Q243 468 212 437T163 360T138 261T131 164Q131 105
157 68T227 31Q262 31 289 57T336 127T366 226T377 337Q377 396 357 432T292 469Z" />
<glyph unicode="p" glyph-name="p" horiz-adv-x="542" d="M97 -146Q132 -152 167 -171V-200H10L1 -191L44 8L137 442L76 451V476Q109 490 145 501T214 512L234 500L193 324H197Q215 364 236 398T283 457T337 497T399 512Q421 512 441 504T476 478T499 434T508
374Q508 297 485 227T423 104T330 20T216 -12Q199 -12 187 -11T166 -8T149 -1T130 8L97 -146ZM352 450Q323 450 297 428T249 373T208 306T179 243L140 54Q154 42 169 37T219 31Q259 31 294 60T356 136T398 238T414 350Q414 398 398 424T352 450Z" />
<glyph unicode="q" glyph-name="q" horiz-adv-x="515" d="M354 -146Q387 -152 424 -171V-200H267L258 -192L347 195H343Q330 160 311 123T266 56T210 7T144 -12Q40 -12 40 140Q40 211 59 277T115 395T208 478T338 509Q360 509 382 506T425 499T461 489T488 478L354
-146ZM186 50Q213 50 239 75T290 137T333 211T363 276L396 452Q385 460 370 463T332 466Q281 466 243 438T180 364T142 264T130 156Q129 105 142 78T186 50Z" />
<glyph unicode="r" glyph-name="r" horiz-adv-x="385" d="M305 439Q279 429 247 389T189 279L129 0H43L136 442L75 451V476Q109 492 146 500T213 512L233 500L205 367H209Q238 433 280 472T370 512Q383 512 396 510T421 500Q421 491 418 477T410 447T398 419T384
398L305 439Z" />
<glyph unicode="s" glyph-name="s" horiz-adv-x="418" d="M255 118Q254 142 242 159T210 193T168 225T127 260T95 305T82 367Q82 403 96 430T134 475T193 502T269 512Q295 512 327 508T389 486Q389 475 385 461T375 433T360 408T343 392L269 469Q248 468 230 464T199
451T178 428T170 391Q170 365 183 347T215 312T257 280T299 245T332 200T345 139Q345 103 329 75T284 28T218 -2T138 -12Q96 -12 62 -4T7 18Q12 44 19 68T48 114L138 31Q159 31 179 36T216 52T243 79T255 118Z" />
<glyph unicode="t" glyph-name="t" horiz-adv-x="337" d="M54 476Q74 487 96 496T141 510L157 586Q171 597 189 605T228 622L249 610L225 500H349Q351 488 349 475T339 450H215L152 160Q148 141 146 127T144 100Q144 74 159 62T192 50Q217 50 245 59T298 81L309
63Q300 50 282 37T242 13T195 -5T148 -12Q104 -12 79 8T54 70Q54 84 56 101T63 136L129 450H53L54 476Z" />
<glyph unicode="u" glyph-name="u" horiz-adv-x="542" d="M488 55V30Q468 14 440 4T384 -6Q355 -6 343 6T330 32Q330 50 335 92T357 196H353Q340 168 321 132T274 64T213 10T136 -12Q101 -12 77 12T53 82Q53 104 60 147T77 241T98 345T119 442L58 451V476Q74 482
92 488T129 499T165 507T196 512L218 500Q202 425 186 358T155 215Q150 191 145 162T139 97Q139 76 150 63T177 50Q199 50 221 63T262 97T299 143T331 194T354 240T369 275L413 500H496L414 55H488Z" />
<glyph unicode="v" glyph-name="v" horiz-adv-x="447" d="M249 151Q285 211 313 267T361 381Q361 392 359 409T354 445T348 478T343 500Q372 512 402 512T456 500Q441 438 415 374T356 245T283 119T200 0L153 -12L79 442L15 450V475Q21 479 33 485T59 498T89 508T119
512Q141 512 150 501T163 474L209 149L214 86H216L249 151Z" />
<glyph unicode="w" glyph-name="w" horiz-adv-x="687" d="M493 151Q530 211 556 267T601 380Q601 391 599 409T594 445T588 478T583 500Q597 506 613 509T644 512Q674 512 697 500Q682 438 657 374T600 245T530 119T449 0L402 -12L360 272V354H357L317 272Q284
203 250 136T182 0L127 -12L79 442L15 450V475Q21 479 33 485T59 498T89 508T119 512Q141 512 152 502T166 474L193 158L189 86H191L221 159L383 488L417 500Q429 415 437 360T448 278Q456 218 464 158L465 86H467L493 151Z" />
<glyph unicode="x" glyph-name="x" horiz-adv-x="454" d="M201 213Q190 201 176 187T147 158T121 128T102 100Q100 93 100 80T99 53T98 26T99 7Q82 0 65 -3T31 -6Q-2 -6 -24 7Q-15 37 13 74T75 146T141 209T189 252L121 436L57 444V469Q63 473 74 479T100 492T130
502T159 506Q181 506 191 495T207 468L256 294Q279 317 306 346T348 401Q349 408 349 421T348 448T346 475T344 494Q361 500 377 503T411 507Q443 507 467 494Q461 474 447 451T414 405T374 360T332 318T295 283T267 258L339 63L404 55V30Q398 26 387 20T362 8T333
-2T304 -6Q283 -6 272 5T256 32L201 213Z" />
<glyph unicode="y" glyph-name="y" horiz-adv-x="455" d="M88 442L24 450V475Q29 479 40 485T67 497T98 507T128 512Q149 512 158 502T173 474L256 124L259 64H261L284 123Q297 151 310 184T337 252T361 319T380 380Q380 391 378 409T372 445T366 478T361 500Q375
506 391 509T422 512Q452 512 475 500Q444 376 391 252T272 0Q218 -105 164 -157T42 -209Q27 -209 14 -205T-15 -193Q-16 -182 -13 -168T-4 -140T13 -114T37 -95L118 -137Q125 -132 136 -123T159 -97T183 -57T206 0L88 442Z" />
<glyph unicode="z" glyph-name="z" horiz-adv-x="436" d="M116 180L336 423Q291 420 239 424T130 438L84 366L59 372L73 474Q79 513 127 513Q163 513 231 503T395 487L418 512Q431 510 442 502T456 480L112 101Q171 90 227 72T331 27L389 93L413 79L378 -23Q373
-38 360 -48T328 -58Q309 -58 281 -46T218 -17T141 15T55 38L14 -6Q1 -4 -11 4T-24 27L116 180Z" />
<glyph unicode="{" glyph-name="braceleft" horiz-adv-x="351" d="M111 112Q116 135 116 151Q116 184 100 202T54 221L60 251Q79 251 95 259T125 281T148 315T163 356L214 594Q224 642 254 671T332 700H422L414 657H365Q338 657 323 644T300 598L251 366Q244 333
229 310T194 273T154 251T115 241L113 235Q128 233 143 227T170 208T191 179T199 137Q199 122 196 106L146 -129Q143 -141 143 -152Q143 -189 186 -187H234L225 -230H135Q98 -230 78 -212T57 -158Q57 -141 61 -125L111 112Z" />
<glyph unicode="|" glyph-name="bar" horiz-adv-x="237" d="M122 700H174V-130H122V700Z" />
<glyph unicode="}" glyph-name="braceright" horiz-adv-x="351" d="M259 360Q254 337 254 321Q254 251 316 251L310 221Q291 221 275 213T245 190T222 157T207 116L156 -124Q146 -172 116 -201T38 -230H-52L-43 -187H5Q32 -187 47 -174T70 -129L120 106Q127 139
141 162T172 199T209 221T247 231L248 237Q234 238 220 244T195 262T178 290T171 330Q171 349 175 366L224 598Q227 610 227 620Q228 658 184 657H137L145 700H236Q273 700 293 682T313 628Q313 611 309 595L259 360Z" />
<glyph unicode="~" glyph-name="asciitilde" horiz-adv-x="524" d="M66 322Q102 376 135 396T198 417Q223 417 247 407T294 383T340 360T389 349Q407 349 426 356T466 383L479 362Q450 320 422 303T366 285Q340 285 316 295T267 319T219 342T171 353Q149 353 127
341T81 298L66 322Z" />
<glyph unicode="&#xa0;" glyph-name="uni00A0" horiz-adv-x="243" />
<glyph unicode="&#xa1;" glyph-name="exclamdown" horiz-adv-x="327" d="M197 286L192 110L133 -186Q121 -192 108 -194T83 -197Q69 -197 58 -195T37 -186L102 110L171 286H197ZM142 446Q142 476 161 494T210 512Q241 512 260 494T279 446Q279 417 260 399T210
381Q180 381 161 399T142 446Z" />
<glyph unicode="&#xa2;" glyph-name="cent" horiz-adv-x="524" d="M430 89Q419 71 403 55T366 25T319 2T263 -10L230 -170H178L212 -10Q127 -2 87 46T47 171Q47 234 68 290T127 390T214 464T321 505L355 660H407L375 511Q378 511 381 511T387 511Q405 511 426
510T465 505T498 498T519 489Q520 478 518 465T510 438T496 414T479 399L411 468Q386 468 364 465L276 52Q327 54 361 72T415 108L430 89ZM143 179Q142 125 164 95T225 55L311 451Q272 436 241 410T187 349T154 271T143 179Z" />
<glyph unicode="&#xa3;" glyph-name="sterling" horiz-adv-x="524" d="M52 381H137Q129 413 126 444T122 498Q122 547 135 586T179 654T258 697T375 712Q436 712 485 702T562 678Q558 662 551 640T535 594T517 547T501 507H476L465 644Q446 652 421 656T363 660Q316
660 283 645T233 597Q223 577 219 552T216 505Q217 472 220 445T230 381H386L375 329H237Q238 318 239 310T240 293T241 275T238 250Q236 217 214 178T150 108L111 80V76L166 82H366L439 194H464Q462 172 459 146T451 94T443 43T434 0H-26L-20 31Q6 41 26 52T62
75T91 103T119 137Q138 162 149 192T160 245Q160 273 157 293T148 329H41L52 381Z" />
<glyph unicode="&#xa4;" glyph-name="currency" horiz-adv-x="524" d="M31 170L114 252L149 263Q135 280 129 301T123 346Q123 369 129 390T149 429L114 440L32 523L86 577L168 494L180 460Q197 473 218 480T262 487Q312 485 345 460L357 494L439 576L493 522L410
440L377 429Q389 412 395 391T401 346Q401 298 377 262L410 252L492 169L438 115L356 197L345 231Q310 207 262 207Q239 207 218 213T178 231L168 198L85 116L31 170ZM262 264Q298 264 322 287T347 346Q347 382 323 405T262 429Q226 430 202 406T177 346Q177 310
201 287T262 264Z" />
<glyph unicode="&#xa5;" glyph-name="yen" horiz-adv-x="524" d="M447 700H668L662 671Q619 652 581 646L354 335H498L488 283H325L311 220H474L464 168H301L277 53Q315 48 346 29L341 0H87L92 29Q132 47 181 53L205 168H42L52 220H215L229 283H66L77 335H219L114
646Q92 651 74 657T38 671L44 700H307L301 671Q285 665 265 659T219 646L310 351L517 646Q496 651 477 657T441 671L447 700Z" />
<glyph unicode="&#xa6;" glyph-name="brokenbar" horiz-adv-x="237" d="M120 190H172V-130H120V190ZM172 380H120V700H172V380Z" />
<glyph unicode="&#xa7;" glyph-name="section" horiz-adv-x="527" d="M379 44Q380 74 359 92T305 123T236 149T166 180T113 228T91 304Q91 354 128 390T222 449Q201 459 183 471T152 499T130 537T122 587Q122 614 134 637T167 676T219 702T286 712Q340 712 379
707T450 689Q448 673 446 662T440 639T434 616T425 588H400L344 660Q332 665 322 666T295 669Q252 668 232 645T212 596Q211 566 232 547T286 512T355 484T425 451T478 405T500 337Q500 308 488 285T457 242T415 209T371 184Q391 175 408 165T439 140T461 109T469
68Q469 -2 416 -42T274 -82Q190 -82 112 -53Q113 -35 115 -23T120 1T127 24T137 52H162L226 -27Q237 -36 247 -37T271 -39Q320 -39 350 -15T379 44ZM410 313Q411 337 399 354T366 384T320 407T267 429Q234 413 207 386T181 326Q180 300 192 281T225 248T272 223T325
202Q342 212 357 226T385 254T404 284T410 313Z" />
<glyph unicode="&#xa8;" glyph-name="dieresis" horiz-adv-x="488" d="M179 662Q179 686 194 700T234 715Q258 715 273 701T288 662Q288 639 273 625T234 611Q209 611 194 625T179 662ZM381 662Q381 686 396 700T435 715Q460 715 475 701T490 662Q490 639 475
625T435 611Q411 611 396 625T381 662Z" />
<glyph unicode="&#xa9;" glyph-name="copyright" horiz-adv-x="807" d="M51 290Q51 373 80 438T159 549T271 618T404 642Q473 642 536 618T648 549T726 439T756 290Q756 207 727 142T649 31T537 -38T404 -62Q332 -62 268 -38T155 31T79 141T51 290ZM103 290Q103
221 126 165T191 69T287 7T404 -15Q466 -15 521 7T616 68T680 164T704 290Q704 359 679 415T613 511T517 573T404 595Q338 595 283 573T188 511T126 415T103 290ZM510 206H535Q539 191 541 161T540 106Q531 99 518 95T489 87T458 83T429 82Q380 82 340 95T270 135T224
201T207 291Q207 343 225 382T273 447T340 486T416 500Q455 500 486 495T537 479Q538 470 538 456T537 425T534 394T529 369H504L474 452Q467 457 452 457T423 459Q366 458 335 414T303 291Q303 258 310 228T332 174T373 137T433 123Q453 123 465 127T482 135L510
206Z" />
<glyph unicode="&#xaa;" glyph-name="ordfeminine" horiz-adv-x="430" d="M283 488Q276 474 263 455T231 419T188 390T136 378Q90 378 65 408T39 494Q39 543 56 583T102 652T169 696T249 712Q269 712 290 708T329 693L389 708L406 700L349 431L400 422V404Q384
393 359 386T304 378Q284 378 278 389T273 414L287 488H283ZM171 428Q189 428 207 439T243 467T274 503T296 540L319 655Q305 661 290 667T257 673Q232 673 208 662T165 629T135 575T123 500Q123 469 135 449T171 428Z" />
<glyph unicode="&#xab;" glyph-name="guillemotleft" horiz-adv-x="461" d="M240 259L452 464L473 445L325 258L401 77L372 57L240 259ZM46 259L303 466L324 446L143 257L252 76L222 55L46 259Z" />
<glyph unicode="&#xac;" glyph-name="logicalnot" horiz-adv-x="500" d="M37 387H462V198H400V324H37V387Z" />
<glyph unicode="&#xad;" glyph-name="uni00AD" horiz-adv-x="425" d="M85 313H367L354 250H71L85 313Z" />
<glyph unicode="&#xae;" glyph-name="registered" horiz-adv-x="697" d="M127 451Q127 515 148 564T206 648T291 699T394 717Q450 717 498 700T583 648T640 565T661 451Q661 386 640 337T582 253T497 202T394 184Q338 184 290 201T205 253T148 336T127 451ZM174
451Q174 399 191 358T239 287T309 242T394 227Q441 226 481 241T551 286T597 356T614 451Q614 503 597 544T549 615T479 660T394 675Q346 676 306 660T237 615T191 545T174 451ZM360 342Q373 341 381 339T397 333V309H273V333Q290 339 308 342V575Q297 576 289
578T273 586V608H311Q329 608 354 610T395 612Q417 612 437 608T474 593T499 566T508 528Q508 497 487 479T437 452Q455 423 471 396T517 342L540 330V309H490L462 320Q437 350 422 382T396 443H360V342ZM390 580Q379 580 373 580T360 577V472H392Q452 472 450
528Q449 554 433 567T390 580Z" />
<glyph unicode="&#xaf;" glyph-name="overscore" horiz-adv-x="464" d="M206 637L216 689H470L459 637H206Z" />
<glyph unicode="&#xb0;" glyph-name="degree" horiz-adv-x="414" d="M127 571Q127 602 138 628T168 672T214 701T269 712Q298 712 324 703T369 677T399 633T410 571Q410 538 399 512T369 468T324 440T269 430Q240 430 214 439T169 467T138 512T127 571ZM183 571Q183
530 208 505T269 479Q307 479 330 503T354 571Q354 613 331 638T269 663Q230 663 207 638T183 571Z" />
<glyph unicode="&#xb1;" glyph-name="plusminus" horiz-adv-x="524" d="M37 490H235V700H288V490H487V437H288V283H235V437H37V490ZM37 230H487V177H37V230Z" />
<glyph unicode="&#xb2;" glyph-name="twosuperior" horiz-adv-x="421" d="M196 639H174Q171 649 167 666T160 702T156 738T154 765Q174 776 192 785T230 800T272 809T323 813Q363 813 390 806T433 785T456 753T463 715Q463 678 442 642T383 572T295 507T185 448V442L216
448H353L412 516H434Q433 502 431 485T427 449T421 414T415 386H76L84 419Q145 453 199 489T293 563T356 637T379 708Q379 734 363 749T307 765Q288 765 272 762T239 750L196 639Z" />
<glyph unicode="&#xb3;" glyph-name="threesuperior" horiz-adv-x="421" d="M250 423Q280 423 301 433T334 457T353 489T359 520Q359 548 341 563T268 578H234L240 604L346 713L402 755L403 757L340 752H251L195 661H173Q171 674 171 693T171 734T173 774T176
804H482L475 768L364 662L315 622L314 621L346 625Q388 622 415 599T443 531Q443 499 431 471T394 422T328 389T231 377Q212 377 191 380T149 390T112 405T84 423L138 515H156Q160 510 164 500T172 479T180 455T187 433Q195 430 211 427T250 423Z" />
<glyph unicode="&#xb4;" glyph-name="acute" horiz-adv-x="512" d="M352 767Q360 768 373 767T400 762T426 755T444 745V726L247 575L225 593L352 767Z" />
<glyph unicode="&#xb5;" glyph-name="mu" horiz-adv-x="574" d="M157 15L161 -175L156 -200Q105 -213 65 -200L200 442L140 450V476Q175 489 210 498T277 512L300 501Q292 464 285 433T271 370T255 302T237 216Q229 177 225 146T222 94T233 61T261 50Q283 50 309
67T360 114T410 184T452 273L494 496L579 501L496 56L570 55L569 29Q546 15 527 2T487 -13Q474 -13 464 -6L411 31L440 195H436Q385 87 333 38T220 -12Q203 -12 191 -6T163 15H157Z" />
<glyph unicode="&#xb6;" glyph-name="paragraph" horiz-adv-x="511" d="M404 94Q404 27 395 -15T369 -83T329 -121T277 -139Q257 -171 230 -187T177 -212L166 -192Q188 -183 206 -168T238 -127T259 -65T267 24V310Q235 310 204 320T147 352T105 411T89 500Q89
542 101 578T138 642T201 684T290 700H480V670Q463 662 445 656T404 646V94ZM288 -116Q330 -99 344 -47T358 94V651H314V24Q314 -16 308 -53T288 -116Z" />
<glyph unicode="&#xb7;" glyph-name="middot" horiz-adv-x="230" d="M60 307Q60 337 79 355T128 373Q159 373 178 355T197 307Q197 278 178 260T128 242Q98 242 79 260T60 307Z" />
<glyph unicode="&#xb8;" glyph-name="cedilla" horiz-adv-x="445" d="M196 -68Q238 -70 256 -87T276 -134Q277 -165 259 -187T212 -224T152 -245T92 -251V-221Q111 -218 130 -213T164 -199T188 -180T196 -154Q196 -145 194 -137T185 -123T166 -112T134 -105L190
1H236L196 -68Z" />
<glyph unicode="&#xb9;" glyph-name="onesuperior" horiz-adv-x="421" d="M393 386H113L118 407Q176 431 227 441L279 688L294 733Q269 726 238 724T178 722L184 751Q228 760 270 776T353 813H384L305 441Q330 435 354 427T398 407L393 386Z" />
<glyph unicode="&#xba;" glyph-name="ordmasculine" horiz-adv-x="436" d="M39 500Q39 546 57 585T105 652T174 696T255 712Q324 712 361 676T398 583Q398 531 379 492T329 426T260 386T183 372Q153 372 127 381T81 408T50 448T39 500ZM122 499Q122 481 125 465T137
437T159 417T190 409Q212 409 234 420T275 454T304 512T315 595Q315 610 312 624T300 649T279 667T246 674Q224 674 202 661T162 624T133 569T122 499Z" />
<glyph unicode="&#xbb;" glyph-name="guillemotright" horiz-adv-x="461" d="M261 262L48 57L28 76L175 263L100 444L128 464L261 262ZM454 262L198 55L177 75L358 264L249 445L279 466L454 262Z" />
<glyph unicode="&#xbc;" glyph-name="onequarter" horiz-adv-x="929" d="M818 710L853 679L188 -7L154 25L818 710ZM605 282H325L330 303Q388 327 439 337L491 584L506 629Q481 622 450 620T390 618L396 647Q440 656 482 672T565 709H596L517 337Q542 331 566
323T610 303L605 282ZM836 0H626L631 21Q649 30 668 35T709 45L724 117H484L488 141L833 427H868L812 164H906L897 117H803L788 45Q802 42 814 37T841 21L836 0ZM761 294L782 337H779L737 294L605 180L565 157L629 164H734L761 294Z" />
<glyph unicode="&#xbd;" glyph-name="onehalf" horiz-adv-x="994" d="M818 710L853 679L188 -7L154 25L818 710ZM605 282H325L330 303Q388 327 439 337L491 584L506 629Q481 622 450 620T390 618L396 647Q440 656 482 672T565 709H596L517 337Q542 331 566 323T610
303L605 282ZM696 253H674Q671 263 667 280T660 316T656 352T654 379Q674 390 692 399T730 414T772 423T823 427Q863 427 890 420T933 399T956 367T963 329Q963 292 942 256T883 186T795 121T685 62V56L716 62H853L912 130H934Q933 116 931 99T927 63T921 28T915
0H576L584 33Q645 67 699 103T793 177T856 251T879 322Q879 348 863 363T807 379Q788 379 772 376T739 364L696 253Z" />
<glyph unicode="&#xbe;" glyph-name="threequarters" horiz-adv-x="981" d="M868 710L903 679L238 -7L204 25L868 710ZM240 319Q270 319 291 329T324 353T343 385T349 416Q349 444 331 459T258 474H224L230 500L336 609L392 651L393 653L330 648H241L185 557H163Q161
570 161 589T161 630T163 670T166 700H472L465 664L354 558L305 518L304 517L336 521Q378 518 405 495T433 427Q433 395 421 367T384 318T318 285T221 273Q202 273 181 276T139 286T102 301T74 319L128 411H146Q150 406 154 396T162 375T170 351T177 329Q185 326
201 323T240 319ZM894 0H684L689 21Q707 30 726 35T767 45L782 117H542L546 141L891 427H926L870 164H964L955 117H861L846 45Q860 42 872 37T899 21L894 0ZM819 294L840 337H837L795 294L663 180L623 157L687 164H792L819 294Z" />
<glyph unicode="&#xbf;" glyph-name="questiondown" horiz-adv-x="473" d="M299 -15H324Q327 -36 331 -65T335 -126Q335 -137 335 -146T333 -166Q290 -189 247 -198T152 -208Q72 -208 29 -173T-14 -75Q-14 -25 7 12T60 78T130 133T202 186T261 246T292 323H311Q315
271 300 232T260 162T204 104T146 52T101 -4T82 -69Q83 -114 109 -135T176 -156Q208 -157 229 -152T260 -138L299 -15ZM242 446Q242 476 261 494T310 512Q341 512 360 494T379 446Q379 417 360 399T310 381Q280 381 261 399T242 446Z" />
<glyph unicode="&#xc0;" glyph-name="Agrave" horiz-adv-x="674" d="M176 0H-49L-43 29Q-4 45 35 53L430 712H456L569 53Q587 49 605 44T639 29L634 0H380L385 29Q430 46 473 53L443 236H208L101 53Q144 47 181 29L176 0ZM237 288H435L403 500L401 586H399L359
498L237 288ZM485 769L468 750L242 841V861Q248 868 261 874T289 885T318 892T340 893L485 769Z" />
<glyph unicode="&#xc1;" glyph-name="Aacute" horiz-adv-x="674" d="M176 0H-49L-43 29Q-4 45 35 53L430 712H456L569 53Q587 49 605 44T639 29L634 0H380L385 29Q430 46 473 53L443 236H208L101 53Q144 47 181 29L176 0ZM237 288H435L403 500L401 586H399L359
498L237 288ZM567 893Q576 894 590 892T618 886T645 875T664 861V841L438 750L421 769L567 893Z" />
<glyph unicode="&#xc2;" glyph-name="Acircumflex" horiz-adv-x="674" d="M176 0H-49L-43 29Q-4 45 35 53L430 712H456L569 53Q587 49 605 44T639 29L634 0H380L385 29Q430 46 473 53L443 236H208L101 53Q144 47 181 29L176 0ZM237 288H435L403 500L401 586H399L359
498L237 288ZM312 752L298 771L465 883Q470 887 479 887Q487 887 491 883L576 774L561 753L461 809L312 752Z" />
<glyph unicode="&#xc3;" glyph-name="Atilde" horiz-adv-x="674" d="M176 0H-49L-43 29Q-4 45 35 53L430 712H456L569 53Q587 49 605 44T639 29L634 0H380L385 29Q430 46 473 53L443 236H208L101 53Q144 47 181 29L176 0ZM237 288H435L403 500L401 586H399L359
498L237 288ZM884 821Q852 789 825 777T773 765Q754 765 738 770T705 782T674 793T643 799Q629 799 615 794T585 774L566 803Q604 837 633 849T687 862Q705 862 721 857T753 846T783 835T814 830Q827 830 841 834T871 850L884 821Z" />
<glyph unicode="&#xc4;" glyph-name="Adieresis" horiz-adv-x="674" d="M176 0H-49L-43 29Q-4 45 35 53L430 712H456L569 53Q587 49 605 44T639 29L634 0H380L385 29Q430 46 473 53L443 236H208L101 53Q144 47 181 29L176 0ZM237 288H435L403 500L401 586H399L359
498L237 288ZM283 789Q283 813 299 825T340 837Q365 837 381 825T397 789Q397 766 381 754T340 742Q316 742 300 754T283 789ZM506 789Q506 813 522 825T563 837Q587 837 603 825T620 789Q619 766 603 754T563 742Q538 742 522 754T506 789Z" />
<glyph unicode="&#xc5;" glyph-name="Aring" horiz-adv-x="674" d="M346 778Q346 798 357 815T386 846T428 866T479 874Q496 874 512 871T541 860T562 837T570 802Q570 783 561 767T535 739T499 719T456 709L569 53Q587 49 605 44T639 29L634 0H380L385 29Q430
46 473 53L443 236H208L101 53Q144 47 181 29L176 0H-49L-43 29Q-4 45 35 53L428 709Q390 711 368 728T346 778ZM237 288H435L403 500L401 586H399L359 498L237 288ZM402 781Q402 764 415 757T447 750Q476 750 495 763T514 797Q514 817 501 825T469 833Q440 833
421 819T402 781Z" />
<glyph unicode="&#xc6;" glyph-name="AE" horiz-adv-x="913" d="M943 700Q928 623 897 538H871L854 648H635L580 383H742L797 457H822Q815 407 805 355T779 255H755L731 331H569L509 51H739L814 172H839Q837 131 831 88T814 0H321L326 29Q367 46 414 53L457 256H264L107
53Q128 50 147 44T186 29L181 0H-49L-43 29Q-4 45 35 53L514 652Q485 658 460 671L467 700H943ZM304 307H468L533 611H531L472 518L304 307Z" />
<glyph unicode="&#xc7;" glyph-name="Ccedilla" horiz-adv-x="635" d="M557 182H582Q582 154 577 112T560 29Q522 7 474 -2T384 -12L347 -75Q402 -76 420 -96T439 -148Q439 -180 419 -203T368 -242T303 -264T239 -272V-239Q258 -236 278 -231T315 -216T341 -194T351
-163Q351 -153 348 -145T338 -131T317 -122T282 -116L335 -10Q261 -4 210 21T127 84T81 167T66 258Q66 360 95 443T177 586T307 679T480 712Q546 712 592 703T669 678Q666 662 661 641T648 595T632 548T617 506H591L570 650Q557 655 531 657T479 660Q413 660 357
635T260 559T196 434T173 260Q173 198 194 156T248 87T319 50T391 40Q425 39 448 45T483 58L557 182Z" />
<glyph unicode="&#xc8;" glyph-name="Egrave" horiz-adv-x="572" d="M601 700Q593 660 582 619T556 538H530L513 648H294L239 383H401L456 457H481Q473 407 463 357T438 255H413L390 331H227L169 52H398L473 172H498Q496 133 490 89T473 0H-20L-15 29Q26 46 73
53L198 646Q178 651 159 657T121 671L128 700H601ZM458 769L441 750L215 841V861Q221 868 234 874T262 885T291 892T313 893L458 769Z" />
<glyph unicode="&#xc9;" glyph-name="Eacute" horiz-adv-x="572" d="M601 700Q593 660 582 619T556 538H530L513 648H294L239 383H401L456 457H481Q473 407 463 357T438 255H413L390 331H227L169 52H398L473 172H498Q496 133 490 89T473 0H-20L-15 29Q26 46 73
53L198 646Q178 651 159 657T121 671L128 700H601ZM720 893Q729 894 743 892T771 886T798 875T817 861V841L591 750L574 769L720 893Z" />
<glyph unicode="&#xca;" glyph-name="Ecircumflex" horiz-adv-x="572" d="M601 700Q593 660 582 619T556 538H530L513 648H294L239 383H401L456 457H481Q473 407 463 357T438 255H413L390 331H227L169 52H398L473 172H498Q496 133 490 89T473 0H-20L-15 29Q26
46 73 53L198 646Q178 651 159 657T121 671L128 700H601ZM533 752L519 771L686 883Q691 887 700 887Q708 887 712 883L797 774L782 753L682 809L533 752Z" />
<glyph unicode="&#xcb;" glyph-name="Edieresis" horiz-adv-x="572" d="M601 700Q593 660 582 619T556 538H530L513 648H294L239 383H401L456 457H481Q473 407 463 357T438 255H413L390 331H227L169 52H398L473 172H498Q496 133 490 89T473 0H-20L-15 29Q26 46
73 53L198 646Q178 651 159 657T121 671L128 700H601ZM229 789Q229 813 245 825T286 837Q311 837 327 825T343 789Q343 766 327 754T286 742Q262 742 246 754T229 789ZM452 789Q452 813 468 825T509 837Q533 837 549 825T566 789Q565 766 549 754T509 742Q484 742
468 754T452 789Z" />
<glyph unicode="&#xcc;" glyph-name="Igrave" horiz-adv-x="343" d="M255 0H-1L4 29Q48 47 90 53L215 646Q195 650 177 656T140 671L147 700H403L397 671Q377 663 354 657T311 646L186 53Q206 49 225 43T260 29L255 0ZM615 769L598 750L372 841V861Q378 868 391
874T419 885T448 892T470 893L615 769Z" />
<glyph unicode="&#xcd;" glyph-name="Iacute" horiz-adv-x="343" d="M255 0H-1L4 29Q48 47 90 53L215 646Q195 650 177 656T140 671L147 700H403L397 671Q377 663 354 657T311 646L186 53Q206 49 225 43T260 29L255 0ZM340 893Q349 894 363 892T391 886T418 875T437
861V841L211 750L194 769L340 893Z" />
<glyph unicode="&#xce;" glyph-name="Icircumflex" horiz-adv-x="343" d="M255 0H-1L4 29Q48 47 90 53L215 646Q195 650 177 656T140 671L147 700H403L397 671Q377 663 354 657T311 646L186 53Q206 49 225 43T260 29L255 0ZM152 752L138 771L305 883Q310 887 319
887Q327 887 331 883L416 774L401 753L301 809L152 752Z" />
<glyph unicode="&#xcf;" glyph-name="Idieresis" horiz-adv-x="343" d="M255 0H-1L4 29Q48 47 90 53L215 646Q195 650 177 656T140 671L147 700H403L397 671Q377 663 354 657T311 646L186 53Q206 49 225 43T260 29L255 0ZM369 789Q369 813 385 825T426 837Q451
837 467 825T483 789Q483 766 467 754T426 742Q402 742 386 754T369 789ZM592 789Q592 813 608 825T649 837Q673 837 689 825T706 789Q705 766 689 754T649 742Q624 742 608 754T592 789Z" />
<glyph unicode="&#xd0;" glyph-name="Eth" horiz-adv-x="702" d="M-20 0L-15 29Q26 46 73 53L132 331H42L53 383H142L198 646Q176 651 157 657T121 671L128 700H229Q246 700 269 701T317 703T365 706T403 708Q483 708 539 689T629 638T679 561T695 465Q695 414
687 359T658 251T605 151T521 69T401 12T242 -9Q227 -9 207 -8T163 -5T117 -2T75 0H-20ZM383 656Q357 656 330 655T289 652L232 383H399L388 331H221L161 46Q171 45 185 45T214 44T240 43T258 43Q352 42 415 80T517 179T572 317T588 471Q588 510 579 544T547 602T485
641T383 656Z" />
<glyph unicode="&#xd1;" glyph-name="Ntilde" horiz-adv-x="723" d="M588 700H801L795 671Q775 657 751 647T705 631L568 -12H514L263 539L242 617H239L229 539L129 64Q147 59 165 50T198 29L192 0H-20L-15 29Q28 55 75 64L197 637Q178 645 161 654T129 672L134
700H300L515 225L545 139H549L565 225L651 631Q611 648 582 671L588 700ZM887 821Q855 789 828 777T776 765Q757 765 741 770T708 782T677 793T646 799Q632 799 618 794T588 774L569 803Q607 837 636 849T690 862Q708 862 724 857T756 846T786 835T817 830Q830
830 844 834T874 850L887 821Z" />
<glyph unicode="&#xd2;" glyph-name="Ograve" horiz-adv-x="730" d="M66 278Q66 369 93 448T173 585T298 678T463 712Q536 712 586 688T666 625T710 536T724 431Q724 351 702 272T632 129T514 27T344 -12Q272 -12 220 11T133 74T83 166T66 278ZM173 277Q173 222
187 178T227 103T287 56T363 40Q436 39 484 75T562 169T604 296T617 432Q617 483 606 525T571 597T515 643T437 660Q368 660 318 624T236 532T188 408T173 277ZM536 769L519 750L293 841V861Q299 868 312 874T340 885T369 892T391 893L536 769Z" />
<glyph unicode="&#xd3;" glyph-name="Oacute" horiz-adv-x="730" d="M66 278Q66 369 93 448T173 585T298 678T463 712Q536 712 586 688T666 625T710 536T724 431Q724 351 702 272T632 129T514 27T344 -12Q272 -12 220 11T133 74T83 166T66 278ZM173 277Q173 222
187 178T227 103T287 56T363 40Q436 39 484 75T562 169T604 296T617 432Q617 483 606 525T571 597T515 643T437 660Q368 660 318 624T236 532T188 408T173 277ZM538 893Q547 894 561 892T589 886T616 875T635 861V841L409 750L392 769L538 893Z" />
<glyph unicode="&#xd4;" glyph-name="Ocircumflex" horiz-adv-x="730" d="M66 278Q66 369 93 448T173 585T298 678T463 712Q536 712 586 688T666 625T710 536T724 431Q724 351 702 272T632 129T514 27T344 -12Q272 -12 220 11T133 74T83 166T66 278ZM173 277Q173
222 187 178T227 103T287 56T363 40Q436 39 484 75T562 169T604 296T617 432Q617 483 606 525T571 597T515 643T437 660Q368 660 318 624T236 532T188 408T173 277ZM340 752L326 771L493 883Q498 887 507 887Q515 887 519 883L604 774L589 753L489 809L340 752Z"
/>
<glyph unicode="&#xd5;" glyph-name="Otilde" horiz-adv-x="730" d="M66 278Q66 369 93 448T173 585T298 678T463 712Q536 712 586 688T666 625T710 536T724 431Q724 351 702 272T632 129T514 27T344 -12Q272 -12 220 11T133 74T83 166T66 278ZM173 277Q173 222
187 178T227 103T287 56T363 40Q436 39 484 75T562 169T604 296T617 432Q617 483 606 525T571 597T515 643T437 660Q368 660 318 624T236 532T188 408T173 277ZM889 821Q857 789 830 777T778 765Q759 765 743 770T710 782T679 793T648 799Q634 799 620 794T590
774L571 803Q609 837 638 849T692 862Q710 862 726 857T758 846T788 835T819 830Q832 830 846 834T876 850L889 821Z" />
<glyph unicode="&#xd6;" glyph-name="Odieresis" horiz-adv-x="730" d="M66 278Q66 369 93 448T173 585T298 678T463 712Q536 712 586 688T666 625T710 536T724 431Q724 351 702 272T632 129T514 27T344 -12Q272 -12 220 11T133 74T83 166T66 278ZM173 277Q173
222 187 178T227 103T287 56T363 40Q436 39 484 75T562 169T604 296T617 432Q617 483 606 525T571 597T515 643T437 660Q368 660 318 624T236 532T188 408T173 277ZM299 789Q299 813 315 825T356 837Q381 837 397 825T413 789Q413 766 397 754T356 742Q332 742
316 754T299 789ZM522 789Q522 813 538 825T579 837Q603 837 619 825T636 789Q635 766 619 754T579 742Q554 742 538 754T522 789Z" />
<glyph unicode="&#xd7;" glyph-name="multiply" horiz-adv-x="524" d="M83 204L223 344L85 483L122 520L261 382L401 522L438 485L298 345L441 202L403 164L260 307L120 167L83 204Z" />
<glyph unicode="&#xd8;" glyph-name="Oslash" horiz-adv-x="730" d="M66 278Q66 369 93 448T173 585T298 678T463 712Q515 712 554 700T623 667L662 713L702 681L661 632Q695 593 709 540T724 431Q724 351 702 272T632 129T514 27T344 -12Q287 -12 243 2T166 43L119
-13L80 20L129 78Q97 118 82 169T66 278ZM363 40Q411 39 448 55T514 100T561 167T593 248T610 336T617 426Q616 496 593 551L223 110Q275 39 363 40ZM437 660Q368 660 319 625T237 535T190 413T173 283Q173 248 179 217T196 159L567 600Q544 629 512 644T437 660Z"
/>
<glyph unicode="&#xd9;" glyph-name="Ugrave" horiz-adv-x="666" d="M112 700H366L360 671Q321 654 279 646L194 249Q183 196 188 159T212 97T262 62T334 51Q415 51 463 96T532 238L617 637Q573 652 545 671L551 700H765L758 671Q741 660 718 651T673 637L588
236Q560 105 490 48T308 -9Q242 -9 197 10T125 62T92 142T97 243L183 646Q163 650 142 656T106 671L112 700ZM504 769L487 750L261 841V861Q267 868 280 874T308 885T337 892T359 893L504 769Z" />
<glyph unicode="&#xda;" glyph-name="Uacute" horiz-adv-x="666" d="M112 700H366L360 671Q321 654 279 646L194 249Q183 196 188 159T212 97T262 62T334 51Q415 51 463 96T532 238L617 637Q573 652 545 671L551 700H765L758 671Q741 660 718 651T673 637L588
236Q560 105 490 48T308 -9Q242 -9 197 10T125 62T92 142T97 243L183 646Q163 650 142 656T106 671L112 700ZM569 893Q578 894 592 892T620 886T647 875T666 861V841L440 750L423 769L569 893Z" />
<glyph unicode="&#xdb;" glyph-name="Ucircumflex" horiz-adv-x="666" d="M112 700H366L360 671Q321 654 279 646L194 249Q183 196 188 159T212 97T262 62T334 51Q415 51 463 96T532 238L617 637Q573 652 545 671L551 700H765L758 671Q741 660 718 651T673 637L588
236Q560 105 490 48T308 -9Q242 -9 197 10T125 62T92 142T97 243L183 646Q163 650 142 656T106 671L112 700ZM326 752L312 771L479 883Q484 887 493 887Q501 887 505 883L590 774L575 753L475 809L326 752Z" />
<glyph unicode="&#xdc;" glyph-name="Udieresis" horiz-adv-x="666" d="M112 700H366L360 671Q321 654 279 646L194 249Q183 196 188 159T212 97T262 62T334 51Q415 51 463 96T532 238L617 637Q573 652 545 671L551 700H765L758 671Q741 660 718 651T673 637L588
236Q560 105 490 48T308 -9Q242 -9 197 10T125 62T92 142T97 243L183 646Q163 650 142 656T106 671L112 700ZM302 789Q302 813 318 825T359 837Q384 837 400 825T416 789Q416 766 400 754T359 742Q335 742 319 754T302 789ZM525 789Q525 813 541 825T582 837Q606
837 622 825T639 789Q638 766 622 754T582 742Q557 742 541 754T525 789Z" />
<glyph unicode="&#xdd;" glyph-name="Yacute" horiz-adv-x="635" d="M520 700H743L736 671Q716 661 696 656T656 646L393 298L341 53Q378 48 411 29L406 0H152L157 29Q197 47 245 53L297 297L168 646Q146 650 128 656T92 671L99 700H363L357 671Q341 665 321 658T275
646L376 352L588 646Q567 651 549 657T514 671L520 700ZM526 893Q535 894 549 892T577 886T604 875T623 861V841L397 750L380 769L526 893Z" />
<glyph unicode="&#xde;" glyph-name="Thorn" horiz-adv-x="584" d="M169 53Q195 49 217 43T259 28L254 0H-20L-15 28Q8 39 29 44T73 53L198 647Q178 651 159 657T121 672L128 700H386L380 672Q360 663 337 657T294 647L284 598Q307 600 330 601T374 602Q479 602
536 561T594 434Q594 389 575 343T517 260T417 199T272 175Q267 175 257 175T234 175T211 177T195 179L169 53ZM343 550Q318 550 303 549T273 544L206 232Q211 230 220 230T240 228T260 227T276 227Q325 227 364 241T431 281T472 343T487 424Q487 490 455 520T343
550Z" />
<glyph unicode="&#xdf;" glyph-name="germandbls" horiz-adv-x="611" d="M282 387Q282 420 295 450T333 508T396 556T481 590Q485 612 482 633T466 670T435 697T389 709Q366 708 342 701T297 676T259 628T234 550L150 43Q139 -28 113 -75T58 -151T0 -194T-43 -212L-52
-190Q-40 -184 -23 -169T10 -127T41 -64T64 24L129 450H56V476Q76 487 98 495T141 509L148 544Q160 606 190 646T257 710T334 743T407 752Q452 752 483 741T534 712T562 668T571 616Q571 606 570 596T567 574Q528 569 493 557T430 525T387 477T370 412Q370 388
383 369T415 332T457 297T499 259T532 211T545 149Q545 113 529 84T484 33T418 0T338 -12Q296 -12 262 -4T208 17Q213 44 220 68T249 112L338 31Q358 31 379 37T416 57T443 88T455 129Q454 158 442 179T410 218T368 252T327 287T295 329T282 387Z" />
<glyph unicode="&#xe0;" glyph-name="agrave" horiz-adv-x="535" d="M189 50Q216 50 243 75T294 137T337 212T367 277L399 448Q385 458 372 462T336 466Q290 466 253 438T189 364T148 264T133 156Q133 105 145 78T189 50ZM347 196Q334 160 315 123T270 56T213
7T147 -12Q43 -12 43 139Q43 209 63 275T121 394T213 477T337 509Q362 509 377 505T413 491Q453 512 497 512L407 55H480V30Q460 14 432 4T377 -6Q348 -6 336 6T323 33Q323 51 330 92T351 196H347ZM374 593L352 576L186 725V745Q192 750 205 754T235 762T265 766T288
767L374 593Z" />
<glyph unicode="&#xe1;" glyph-name="aacute" horiz-adv-x="535" d="M189 50Q216 50 243 75T294 137T337 212T367 277L399 448Q385 458 372 462T336 466Q290 466 253 438T189 364T148 264T133 156Q133 105 145 78T189 50ZM347 196Q334 160 315 123T270 56T213
7T147 -12Q43 -12 43 139Q43 209 63 275T121 394T213 477T337 509Q362 509 377 505T413 491Q453 512 497 512L407 55H480V30Q460 14 432 4T377 -6Q348 -6 336 6T323 33Q323 51 330 92T351 196H347ZM413 767Q421 768 434 767T461 762T487 755T505 745V726L308 575L286
593L413 767Z" />
<glyph unicode="&#xe2;" glyph-name="acircumflex" horiz-adv-x="535" d="M189 50Q216 50 243 75T294 137T337 212T367 277L399 448Q385 458 372 462T336 466Q290 466 253 438T189 364T148 264T133 156Q133 105 145 78T189 50ZM347 196Q334 160 315 123T270 56T213
7T147 -12Q43 -12 43 139Q43 209 63 275T121 394T213 477T337 509Q362 509 377 505T413 491Q453 512 497 512L407 55H480V30Q460 14 432 4T377 -6Q348 -6 336 6T323 33Q323 51 330 92T351 196H347ZM245 590L216 606L367 792Q372 796 380 796Q388 796 392 792L465
607L438 590L360 697L245 590Z" />
<glyph unicode="&#xe3;" glyph-name="atilde" horiz-adv-x="535" d="M189 50Q216 50 243 75T294 137T337 212T367 277L399 448Q385 458 372 462T336 466Q290 466 253 438T189 364T148 264T133 156Q133 105 145 78T189 50ZM347 196Q334 160 315 123T270 56T213
7T147 -12Q43 -12 43 139Q43 209 63 275T121 394T213 477T337 509Q362 509 377 505T413 491Q453 512 497 512L407 55H480V30Q460 14 432 4T377 -6Q348 -6 336 6T323 33Q323 51 330 92T351 196H347ZM494 672Q462 640 436 628T386 615Q368 615 352 620T321 632T292
643T262 649Q249 649 236 644T206 625L187 653Q224 688 253 700T305 712Q323 712 338 707T368 696T396 685T426 680Q439 680 452 684T481 700L494 672Z" />
<glyph unicode="&#xe4;" glyph-name="adieresis" horiz-adv-x="535" d="M189 50Q216 50 243 75T294 137T337 212T367 277L399 448Q385 458 372 462T336 466Q290 466 253 438T189 364T148 264T133 156Q133 105 145 78T189 50ZM347 196Q334 160 315 123T270 56T213
7T147 -12Q43 -12 43 139Q43 209 63 275T121 394T213 477T337 509Q362 509 377 505T413 491Q453 512 497 512L407 55H480V30Q460 14 432 4T377 -6Q348 -6 336 6T323 33Q323 51 330 92T351 196H347ZM194 662Q194 686 209 700T249 715Q273 715 288 701T303 662Q303
639 288 625T249 611Q224 611 209 625T194 662ZM396 662Q396 686 411 700T450 715Q475 715 490 701T505 662Q505 639 490 625T450 611Q426 611 411 625T396 662Z" />
<glyph unicode="&#xe5;" glyph-name="aring" horiz-adv-x="535" d="M189 50Q216 50 243 75T294 137T337 212T367 277L399 448Q385 458 372 462T336 466Q290 466 253 438T189 364T148 264T133 156Q133 105 145 78T189 50ZM347 196Q334 160 315 123T270 56T213 7T147
-12Q43 -12 43 139Q43 209 63 275T121 394T213 477T337 509Q362 509 377 505T413 491Q453 512 497 512L407 55H480V30Q460 14 432 4T377 -6Q348 -6 336 6T323 33Q323 51 330 92T351 196H347ZM262 666Q262 689 270 710T293 746T329 771T376 780Q414 780 435 759T456
705Q456 681 447 661T423 625T388 602T344 593Q306 593 284 612T262 666ZM314 670Q314 652 324 643T348 634Q367 634 385 652T403 706Q403 739 374 739Q343 739 329 717T314 670Z" />
<glyph unicode="&#xe6;" glyph-name="ae" horiz-adv-x="739" d="M197 50Q219 50 239 60T276 87T305 124T325 165Q324 181 325 203T329 241Q278 247 240 239T177 215T140 176T128 130Q128 86 149 68T197 50ZM332 106Q304 53 261 21T159 -12Q132 -12 109 -3T68 24T40
66T29 121Q29 159 50 190T112 244T210 275T338 279Q350 321 356 356T358 416T338 455T292 469Q278 469 261 468T225 459L172 349H146Q127 404 126 463Q169 486 217 499T323 512Q379 512 406 495T440 453Q472 480 513 496T602 512Q650 512 684 488T719 415Q719 344
649 303T421 250Q417 233 416 217T414 186Q414 126 444 88T534 50Q553 50 571 56T606 71T636 90T660 108L676 89Q667 70 650 52T610 20T558 -3T496 -12Q432 -12 390 17T332 106ZM571 469Q528 469 491 429T428 293Q525 296 579 326T633 411Q633 432 621 450T571
469Z" />
<glyph unicode="&#xe7;" glyph-name="ccedilla" horiz-adv-x="428" d="M382 89Q363 56 325 27T230 -10L197 -68Q239 -70 257 -87T277 -134Q278 -165 260 -187T213 -224T153 -245T93 -251V-221Q112 -218 131 -213T165 -199T189 -180T197 -154Q197 -145 195 -137T186
-123T167 -112T135 -105L185 -11Q118 -6 79 39T40 163Q40 235 63 298T125 409T218 484T333 512Q371 512 395 506T431 489Q432 478 430 465T422 438T408 414T390 399L322 469Q288 468 255 448T195 391T152 302T136 183Q135 114 163 82T241 51Q262 50 280 56T315
71T344 90T367 108L382 89Z" />
<glyph unicode="&#xe8;" glyph-name="egrave" horiz-adv-x="454" d="M392 89Q383 70 366 52T326 20T274 -3T212 -12Q129 -12 85 35T40 167Q40 238 60 301T116 411T203 485T318 512Q366 512 400 488T435 415Q435 344 365 303T137 250Q133 233 132 217T130 186Q130
126 160 88T250 50Q269 50 287 56T322 71T352 90T376 108L392 89ZM287 469Q244 468 207 429T144 293Q241 296 295 326T349 411Q349 432 337 450T287 469ZM364 593L342 576L176 725V745Q182 750 195 754T225 762T255 766T278 767L364 593Z" />
<glyph unicode="&#xe9;" glyph-name="eacute" horiz-adv-x="454" d="M392 89Q383 70 366 52T326 20T274 -3T212 -12Q129 -12 85 35T40 167Q40 238 60 301T116 411T203 485T318 512Q366 512 400 488T435 415Q435 344 365 303T137 250Q133 233 132 217T130 186Q130
126 160 88T250 50Q269 50 287 56T322 71T352 90T376 108L392 89ZM287 469Q244 468 207 429T144 293Q241 296 295 326T349 411Q349 432 337 450T287 469ZM382 767Q390 768 403 767T430 762T456 755T474 745V726L277 575L255 593L382 767Z" />
<glyph unicode="&#xea;" glyph-name="ecircumflex" horiz-adv-x="454" d="M392 89Q383 70 366 52T326 20T274 -3T212 -12Q129 -12 85 35T40 167Q40 238 60 301T116 411T203 485T318 512Q366 512 400 488T435 415Q435 344 365 303T137 250Q133 233 132 217T130
186Q130 126 160 88T250 50Q269 50 287 56T322 71T352 90T376 108L392 89ZM287 469Q244 468 207 429T144 293Q241 296 295 326T349 411Q349 432 337 450T287 469ZM472 590L443 606L594 792Q599 796 607 796Q615 796 619 792L692 607L665 590L587 697L472 590Z"
/>
<glyph unicode="&#xeb;" glyph-name="edieresis" horiz-adv-x="454" d="M392 89Q383 70 366 52T326 20T274 -3T212 -12Q129 -12 85 35T40 167Q40 238 60 301T116 411T203 485T318 512Q366 512 400 488T435 415Q435 344 365 303T137 250Q133 233 132 217T130 186Q130
126 160 88T250 50Q269 50 287 56T322 71T352 90T376 108L392 89ZM287 469Q244 468 207 429T144 293Q241 296 295 326T349 411Q349 432 337 450T287 469ZM418 662Q418 686 433 700T473 715Q497 715 512 701T527 662Q527 639 512 625T473 611Q448 611 433 625T418
662ZM620 662Q620 686 635 700T674 715Q699 715 714 701T729 662Q729 639 714 625T674 611Q650 611 635 625T620 662Z" />
<glyph unicode="&#xec;" glyph-name="igrave" horiz-adv-x="277" d="M71 451V476Q86 482 105 488T144 500T182 508T214 512L232 500L138 56H212V30Q191 14 163 4T108 -6Q79 -6 67 7T54 37Q54 57 57 76T65 118L135 441L71 451ZM497 593L475 576L309 725V745Q315
750 328 754T358 762T388 766T411 767L497 593Z" />
<glyph unicode="&#xed;" glyph-name="iacute" horiz-adv-x="277" d="M71 451V476Q86 482 105 488T144 500T182 508T214 512L232 500L138 56H212V30Q191 14 163 4T108 -6Q79 -6 67 7T54 37Q54 57 57 76T65 118L135 441L71 451ZM535 767Q543 768 556 767T583 762T609
755T627 745V726L430 575L408 593L535 767Z" />
<glyph unicode="&#xee;" glyph-name="icircumflex" horiz-adv-x="277" d="M71 451V476Q86 482 105 488T144 500T182 508T214 512L232 500L138 56H212V30Q191 14 163 4T108 -6Q79 -6 67 7T54 37Q54 57 57 76T65 118L135 441L71 451ZM371 590L342 606L493 792Q498
796 506 796Q514 796 518 792L591 607L564 590L486 697L371 590Z" />
<glyph unicode="&#xef;" glyph-name="idieresis" horiz-adv-x="277" d="M71 451V476Q86 482 105 488T144 500T182 508T214 512L232 500L138 56H212V30Q191 14 163 4T108 -6Q79 -6 67 7T54 37Q54 57 57 76T65 118L135 441L71 451ZM45 662Q45 686 60 700T100 715Q124
715 139 701T154 662Q154 639 139 625T100 611Q75 611 60 625T45 662ZM247 662Q247 686 262 700T301 715Q326 715 341 701T356 662Q356 639 341 625T301 611Q277 611 262 625T247 662Z" />
<glyph unicode="&#xf0;" glyph-name="eth" horiz-adv-x="496" d="M227 609L338 659Q317 686 291 703T238 729V750H328Q346 743 367 729T409 691L508 736L529 698L434 654Q454 621 466 575T479 467Q479 365 455 278T389 126T293 25T176 -12Q104 -12 67 35T29 168Q29
229 49 289T108 398T201 476T324 506Q342 506 360 502T389 490Q389 530 382 562T360 622L250 572L227 609ZM314 463Q259 463 222 433T162 357T129 260T119 163Q119 140 122 117T134 75T159 43T201 31Q234 31 267 62T328 149T372 280T389 443Q367 455 350 459T314
463Z" />
<glyph unicode="&#xf1;" glyph-name="ntilde" horiz-adv-x="552" d="M386 285Q393 316 398 342T404 395Q404 418 394 434T360 450Q333 450 305 428T253 375T210 311T180 255L127 0H43L131 442L70 451L72 476Q86 483 103 489T139 501T175 509T208 512L228 500L190
323H195Q214 363 238 397T290 457T348 497T409 512Q451 512 470 486T490 419Q490 397 485 364T473 302L416 56H490V30Q470 14 442 4T386 -6Q357 -6 346 6T335 32Q335 51 340 73T350 119L386 285ZM500 672Q468 640 442 628T392 615Q374 615 358 620T327 632T298
643T268 649Q255 649 242 644T212 625L193 653Q230 688 259 700T311 712Q329 712 344 707T374 696T402 685T432 680Q445 680 458 684T487 700L500 672Z" />
<glyph unicode="&#xf2;" glyph-name="ograve" horiz-adv-x="509" d="M41 186Q41 239 57 296T108 402T193 481T312 512Q390 512 429 464T469 322Q469 256 450 196T397 89T315 16T209 -12Q132 -12 87 37T41 186ZM292 469Q243 468 212 437T163 360T138 261T131 164Q131
105 157 68T227 31Q262 31 289 57T336 127T366 226T377 337Q377 396 357 432T292 469ZM351 593L329 576L163 725V745Q169 750 182 754T212 762T242 766T265 767L351 593Z" />
<glyph unicode="&#xf3;" glyph-name="oacute" horiz-adv-x="509" d="M41 186Q41 239 57 296T108 402T193 481T312 512Q390 512 429 464T469 322Q469 256 450 196T397 89T315 16T209 -12Q132 -12 87 37T41 186ZM292 469Q243 468 212 437T163 360T138 261T131 164Q131
105 157 68T227 31Q262 31 289 57T336 127T366 226T377 337Q377 396 357 432T292 469ZM388 767Q396 768 409 767T436 762T462 755T480 745V726L283 575L261 593L388 767Z" />
<glyph unicode="&#xf4;" glyph-name="ocircumflex" horiz-adv-x="509" d="M41 186Q41 239 57 296T108 402T193 481T312 512Q390 512 429 464T469 322Q469 256 450 196T397 89T315 16T209 -12Q132 -12 87 37T41 186ZM292 469Q243 468 212 437T163 360T138 261T131
164Q131 105 157 68T227 31Q262 31 289 57T336 127T366 226T377 337Q377 396 357 432T292 469ZM229 590L200 606L351 792Q356 796 364 796Q372 796 376 792L449 607L422 590L344 697L229 590Z" />
<glyph unicode="&#xf5;" glyph-name="otilde" horiz-adv-x="509" d="M41 186Q41 239 57 296T108 402T193 481T312 512Q390 512 429 464T469 322Q469 256 450 196T397 89T315 16T209 -12Q132 -12 87 37T41 186ZM292 469Q243 468 212 437T163 360T138 261T131 164Q131
105 157 68T227 31Q262 31 289 57T336 127T366 226T377 337Q377 396 357 432T292 469ZM488 672Q456 640 430 628T380 615Q362 615 346 620T315 632T286 643T256 649Q243 649 230 644T200 625L181 653Q218 688 247 700T299 712Q317 712 332 707T362 696T390 685T420
680Q433 680 446 684T475 700L488 672Z" />
<glyph unicode="&#xf6;" glyph-name="odieresis" horiz-adv-x="509" d="M41 186Q41 239 57 296T108 402T193 481T312 512Q390 512 429 464T469 322Q469 256 450 196T397 89T315 16T209 -12Q132 -12 87 37T41 186ZM292 469Q243 468 212 437T163 360T138 261T131
164Q131 105 157 68T227 31Q262 31 289 57T336 127T366 226T377 337Q377 396 357 432T292 469ZM417 662Q417 686 432 700T472 715Q496 715 511 701T526 662Q526 639 511 625T472 611Q447 611 432 625T417 662ZM619 662Q619 686 634 700T673 715Q698 715 713 701T728
662Q728 639 713 625T673 611Q649 611 634 625T619 662Z" />
<glyph unicode="&#xf7;" glyph-name="divide" horiz-adv-x="524" d="M37 372H487V319H37V372ZM194 535Q194 565 213 583T262 601Q293 601 312 583T331 535Q331 506 312 488T262 470Q232 470 213 488T194 535ZM194 154Q194 184 213 202T262 220Q293 220 312 202T331
154Q331 125 312 107T262 89Q232 89 213 107T194 154Z" />
<glyph unicode="&#xf8;" glyph-name="oslash" horiz-adv-x="509" d="M41 186Q41 239 57 296T108 402T193 481T312 512Q376 512 417 476L488 558L526 527L447 435Q458 412 463 385T469 322Q469 256 450 196T397 89T315 16T209 -12Q139 -12 95 29L17 -62L-19 -30L66
69Q41 113 41 186ZM227 31Q261 31 288 57T335 125T365 221T376 330V354L147 88Q158 61 178 46T227 31ZM292 469Q244 468 213 438T164 363T139 266T131 171Q131 164 131 158T132 145L365 414Q343 468 292 469Z" />
<glyph unicode="&#xf9;" glyph-name="ugrave" horiz-adv-x="542" d="M488 55V30Q468 14 440 4T384 -6Q355 -6 343 6T330 32Q330 50 335 92T357 196H353Q340 168 321 132T274 64T213 10T136 -12Q101 -12 77 12T53 82Q53 104 60 147T77 241T98 345T119 442L58 451V476Q74
482 92 488T129 499T165 507T196 512L218 500Q202 425 186 358T155 215Q150 191 145 162T139 97Q139 76 150 63T177 50Q199 50 221 63T262 97T299 143T331 194T354 240T369 275L413 500H496L414 55H488ZM352 593L330 576L164 725V745Q170 750 183 754T213 762T243
766T266 767L352 593Z" />
<glyph unicode="&#xfa;" glyph-name="uacute" horiz-adv-x="542" d="M488 55V30Q468 14 440 4T384 -6Q355 -6 343 6T330 32Q330 50 335 92T357 196H353Q340 168 321 132T274 64T213 10T136 -12Q101 -12 77 12T53 82Q53 104 60 147T77 241T98 345T119 442L58 451V476Q74
482 92 488T129 499T165 507T196 512L218 500Q202 425 186 358T155 215Q150 191 145 162T139 97Q139 76 150 63T177 50Q199 50 221 63T262 97T299 143T331 194T354 240T369 275L413 500H496L414 55H488ZM408 767Q416 768 429 767T456 762T482 755T500 745V726L303
575L281 593L408 767Z" />
<glyph unicode="&#xfb;" glyph-name="ucircumflex" horiz-adv-x="542" d="M488 55V30Q468 14 440 4T384 -6Q355 -6 343 6T330 32Q330 50 335 92T357 196H353Q340 168 321 132T274 64T213 10T136 -12Q101 -12 77 12T53 82Q53 104 60 147T77 241T98 345T119 442L58
451V476Q74 482 92 488T129 499T165 507T196 512L218 500Q202 425 186 358T155 215Q150 191 145 162T139 97Q139 76 150 63T177 50Q199 50 221 63T262 97T299 143T331 194T354 240T369 275L413 500H496L414 55H488ZM229 590L200 606L351 792Q356 796 364 796Q372
796 376 792L449 607L422 590L344 697L229 590Z" />
<glyph unicode="&#xfc;" glyph-name="udieresis" horiz-adv-x="542" d="M488 55V30Q468 14 440 4T384 -6Q355 -6 343 6T330 32Q330 50 335 92T357 196H353Q340 168 321 132T274 64T213 10T136 -12Q101 -12 77 12T53 82Q53 104 60 147T77 241T98 345T119 442L58
451V476Q74 482 92 488T129 499T165 507T196 512L218 500Q202 425 186 358T155 215Q150 191 145 162T139 97Q139 76 150 63T177 50Q199 50 221 63T262 97T299 143T331 194T354 240T369 275L413 500H496L414 55H488ZM431 662Q431 686 446 700T486 715Q510 715 525
701T540 662Q540 639 525 625T486 611Q461 611 446 625T431 662ZM633 662Q633 686 648 700T687 715Q712 715 727 701T742 662Q742 639 727 625T687 611Q663 611 648 625T633 662Z" />
<glyph unicode="&#xfd;" glyph-name="yacute" horiz-adv-x="455" d="M88 442L24 450V475Q29 479 40 485T67 497T98 507T128 512Q149 512 158 502T173 474L256 124L259 64H261L284 123Q297 151 310 184T337 252T361 319T380 380Q380 391 378 409T372 445T366 478T361
500Q375 506 391 509T422 512Q452 512 475 500Q444 376 391 252T272 0Q218 -105 164 -157T42 -209Q27 -209 14 -205T-15 -193Q-16 -182 -13 -168T-4 -140T13 -114T37 -95L118 -137Q125 -132 136 -123T159 -97T183 -57T206 0L88 442ZM375 767Q383 768 396 767T423
762T449 755T467 745V726L270 575L248 593L375 767Z" />
<glyph unicode="&#xfe;" glyph-name="thorn" horiz-adv-x="542" d="M97 -146Q132 -152 167 -171V-200H10L1 -191L184 692L123 701V726Q156 740 192 751T261 762L281 750L193 324H197Q215 364 236 398T283 457T337 497T399 512Q421 512 441 504T476 478T499 434T508
374Q508 297 485 227T423 104T330 20T216 -12Q199 -12 187 -11T166 -8T149 -1T130 8L97 -146ZM352 450Q323 450 297 428T249 373T208 306T179 243L140 54Q154 42 169 37T219 31Q259 31 294 60T356 136T398 238T414 350Q414 398 398 424T352 450Z" />
<glyph unicode="&#xff;" glyph-name="ydieresis" horiz-adv-x="455" d="M88 442L24 450V475Q29 479 40 485T67 497T98 507T128 512Q149 512 158 502T173 474L256 124L259 64H261L284 123Q297 151 310 184T337 252T361 319T380 380Q380 391 378 409T372 445T366
478T361 500Q375 506 391 509T422 512Q452 512 475 500Q444 376 391 252T272 0Q218 -105 164 -157T42 -209Q27 -209 14 -205T-15 -193Q-16 -182 -13 -168T-4 -140T13 -114T37 -95L118 -137Q125 -132 136 -123T159 -97T183 -57T206 0L88 442ZM394 662Q394 686 409
700T449 715Q473 715 488 701T503 662Q503 639 488 625T449 611Q424 611 409 625T394 662ZM596 662Q596 686 611 700T650 715Q675 715 690 701T705 662Q705 639 690 625T650 611Q626 611 611 625T596 662Z" />
<glyph unicode="&#x2013;" glyph-name="endash" horiz-adv-x="616" d="M80 313H562L547 250H65L80 313Z" />
<glyph unicode="&#x2014;" glyph-name="emdash" horiz-adv-x="876" d="M80 313H822L807 250H65L80 313Z" />
<glyph unicode="&#x2018;" glyph-name="quoteleft" horiz-adv-x="282" d="M320 804Q285 791 259 760T227 692Q235 682 252 674T281 660Q282 644 274 629T254 602T229 583T206 575Q178 578 159 594T140 643Q140 675 154 706T192 762T246 806T307 834L320 804Z" />
<glyph unicode="&#x2019;" glyph-name="quoteright" horiz-adv-x="282" d="M120 470Q156 483 182 514T213 582Q205 592 188 600T159 614Q158 630 166 645T186 672T211 691T234 699Q263 696 281 680T300 631Q300 599 286 568T248 512T194 468T134 440L120 470Z" />
<glyph unicode="&#x201a;" glyph-name="quotesinglbase" horiz-adv-x="292" d="M0 -115Q36 -102 62 -71T93 -3Q85 7 68 15T39 29Q38 45 46 60T66 87T91 106T114 114Q143 111 161 95T180 46Q180 14 166 -17T128 -73T74 -117T14 -145L0 -115Z" />
<glyph unicode="&#x201c;" glyph-name="quotedblleft" horiz-adv-x="465" d="M503 804Q468 791 442 760T410 692Q418 682 435 674T464 660Q465 644 457 629T437 602T412 583T389 575Q361 578 342 594T323 643Q323 675 337 706T375 762T429 806T490 834L503 804ZM321
804Q286 791 260 760T228 692Q236 682 253 674T282 660Q283 644 275 629T255 602T230 583T207 575Q179 578 160 594T141 643Q141 675 155 706T193 762T247 806T308 834L321 804Z" />
<glyph unicode="&#x201d;" glyph-name="quotedblright" horiz-adv-x="465" d="M302 470Q338 483 364 514T395 582Q387 592 370 600T341 614Q340 630 348 645T368 672T393 691T416 699Q445 696 463 680T482 631Q482 599 468 568T430 512T376 468T316 440L302 470ZM120
470Q156 483 182 514T213 582Q205 592 188 600T159 614Q158 630 166 645T186 672T211 691T234 699Q263 696 281 680T300 631Q300 599 286 568T248 512T194 468T134 440L120 470Z" />
<glyph unicode="&#x201e;" glyph-name="quotedblbase" horiz-adv-x="474" d="M182 -115Q218 -102 244 -71T275 -3Q267 7 250 15T221 29Q220 45 228 60T248 87T273 106T296 114Q325 111 343 95T362 46Q362 14 348 -17T310 -73T256 -117T196 -145L182 -115ZM0 -115Q36
-102 62 -71T93 -3Q85 7 68 15T39 29Q38 45 46 60T66 87T91 106T114 114Q143 111 161 95T180 46Q180 14 166 -17T128 -73T74 -117T14 -145L0 -115Z" />
<glyph unicode="&#x2022;" glyph-name="bullet" horiz-adv-x="446" d="M101 311Q101 342 112 368T142 412T187 441T242 452Q271 452 297 443T342 415T372 370T383 311Q383 278 372 252T342 208T297 180T242 170Q213 170 187 179T142 207T112 252T101 311Z" />
<glyph unicode="&#x2039;" glyph-name="guilsinglleft" horiz-adv-x="270" d="M46 259L261 464L281 445L137 258L209 77L181 57L46 259Z" />
<glyph unicode="&#x203a;" glyph-name="guilsinglright" horiz-adv-x="270" d="M47 58L28 77L179 269L111 445L140 464L269 260L47 58Z" />
</font>
</defs>
</svg>
